Shes The Man2006DvDripEng SL Grim Reaper

seeders: 2
leechers: 0
updated: 2 days ago
Added on Jul 19, 2012 in Movies
Downloaded 0 times.

  • add She's the Man to bookmarks
  • Release date: 17 March 2006
  • Writers: Ewan Leslie (screenplay), Karen McCullah (screenplay), Kirsten Smith (screenplay), Ewan Leslie (story)
Summary:
When her brother decides to ditch for a couple weeks in London, Viola heads over to his elite boarding school, disguises herself as him to be able to play soccer, and proceeds to fall for one of her soccer teammates. Little does she realize she's not the only one with romantic troubles, as she, as he, gets in the middle of a series of intermingled love affairs.
Written by missix89.19K
report summary
Available in versions: 1080p720pHDRiPDVDRip
Shes The Man2006DvDripEng SL Grim Reaper (Size: 701.73 MB)
  She's.The.Man[2006]DvDrip[Eng]-SLGrim_Reaper.avi 701.62 MB
  She's.The.Man[2006]DvDrip[Eng]-SLGrim_Reaper.srt 104.2 KB
  grim_reaper.nfo 3.04 KB

Description



!!!!!!!!!!!!!!!!!!!!!!!!!!!!!!!!!!!!!!

!!!!!!!!!SL.Grim_Reaper!!!!!!!!!

!!!!!!!!!!!!!!!!!!!!!!!!!!!!!!!!!!!!!!
Proudly Presents...
She's The Man (2006)
Format : AVI

Format/Info : Audio Video Interleave

File size : 702 MiB

Duration : 1h 45mn

Overall bit rate : 932 Kbps

Writing application : VirtualDubMod 1.5.10.1 (build 2366/release)

Writing library : VirtualDubMod build 2366/release
Video

ID : 0

Format : MPEG-4 Visual

Format profile : Advanced Simple@L5

Format settings, BVOP : 2

Format settings, QPel : No

Format settings, GMC : No warppoints

Format settings, Matrix : Default (H.263)

Codec ID : DX50

Codec ID/Hint : DivX 5

Duration : 1h 45mn

Bit rate : 811 Kbps

Width : 512 pixels

Height : 272 pixels

Display aspect ratio : 1.882

Frame rate : 23.976 fps

Color space : YUV

Chroma subsampling : 4:2:0

Bit depth : 8 bits

Scan type : Progressive

Compression mode : Lossy

Bits/(Pixel*Frame) : 0.243

Stream size : 610 MiB (87%)

Writing library : XviD 1.0.3 (UTC 2004-12-20)
Audio

ID : 1

Format : MPEG Audio

Format version : Version 1

Format profile : Layer 3

Codec ID : 55

Codec ID/Hint : MP3

Duration : 1h 45mn

Bit rate mode : Constant

Bit rate : 112 Kbps

Channel(s) : 2 channels

Sampling rate : 48.0 KHz

Compression mode : Lossy

Stream size : 84.3 MiB (12%)

Alignment : Aligned on interleaves

Interleave, duration : 42 ms (1.00 video frame)

Interleave, preload duration : 504 ms
::::::::::::::::::::::::::::::::::::::::::::::::::::::::::::::::::::::::::::::::::::::::::::::

Greetings from Sri Lanka - Little Island of Indian Ocean

:::::::::::::::::::::::::::::::::::::::::::::::::::::::::::::::::::::::::::::::::::::::::::::::

http://extratorrent.com/profile/spklogin/
/>
:::::::::::::::::::::::::::::::::::::::::::::::::::::::::::::::::::::::::::::::::::::::::::::::

Related Torrents

torrent name size files age seed leech

Sharing Widget


Download torrent
701.73 MB
seeders:1
leechers:0
Shes The Man2006DvDripEng SL Grim Reaper



To share this torrent use the code below and insert it into comments, status messages, forum posts or your signature.

Torrent: Shes The Man2006DvDripEng SL Grim Reaper

Trackers

tracker name Status
udp://tracker.1337x.org:80/announce
active
udp://tracker.istole.it:80/announce
active
udp://tracker.publicbt.com:80/announce
active
udp://tracker.openbittorrent.com:80/announce
active
http://tracker.istole.it/announce
active
http://exodus.desync.com:6969/announce
blocked
udp://fr33domtracker.h33t.com:3310/announce
deleted
http://tracker.publicbt.com/announce
deleted
ĀµTorrent compatible trackers list

Locations

name
ExtraTorrent
Torrent hash: 248CC241658D2D96AE1A2CE85D7701DC05862F46

All Comments

audio
0/10
video
0/10
please, leave only comments related to that torrent
or sign-in


User Opinions

Report a bug