Sherlock Holmes Gioco Di Ombre 2011 iTALiAN MD CAM XviD-P76

seeders: 0
leechers: 1
updated:
Added by osalivan100 in Movies
Downloaded 10 times.

Summary:

Sherlock Holmes and his sidekick Dr. Watson join forces to outwit and bring down their fiercest adversary, Professor Moriarty.

Written by Valkyrie95.82K
Sherlock Holmes Gioco Di Ombre 2011 iTALiAN MD CAM XviD-P76 (Size: 1.99 GB)
  Sherlock Holmes Gioco Di Ombre 2011 iTALiAN MD CAM XviD-P76.avi 1.99 GB

Description

General
Complete name : Sherlock Holmes Gioco Di Ombre 2011 iTALiAN MD CAM XviD-P76 [www.italiastarfilm.com]
Format : AVI
Format/Info : Audio Video Interleave
Format profile : OpenDML
File size : 1.99 GiB
Duration : 1h 59mn
Overall bit rate : 2 387 Kbps
Writing application : Lavf51.12.1
Video
ID : 0
Format : xvid
Codec ID : xvid
Duration : 1h 59mn
Bit rate : 2 246 Kbps
Width : 720 pixels
Height : 480 pixels
Display aspect ratio : 3:2
Frame rate : 25.000 fps
Standard : NTSC
Bits/(Pixel*Frame) : 0.260
Stream size : 1.87 GiB (94%)
Audio
ID : 1
Format : MPEG Audio
Format version : Version 1
Format profile : Layer 3
Mode : Joint stereo
Mode extension : MS Stereo
Codec ID : 55
Codec ID/Hint : MP3
Duration : 1h 59mn
Bit rate mode : Constant
Bit rate : 128 Kbps
Channel(s) : 2 channels
Sampling rate : 48.0 KHz
Compression mode : Lossy
Stream size : 109 MiB (5%)
Alignment : Aligned on interleaves
Interleave, duration : 24 ms (0.60 video frame)
Interleave, preload duration : 24 ms

Related Torrents

torrent name size files age seed leech

Sharing Widget


Download torrent
1.99 GB
seeders:0
leechers:1
Sherlock Holmes Gioco Di Ombre 2011 iTALiAN MD CAM XviD-P76



To share this torrent use the code below and insert it into comments, status messages, forum posts or your signature.

Torrent: Sherlock Holmes Gioco Di Ombre 2011 iTALiAN MD CAM XviD-P76

Trackers

tracker name
udp://tracker.publicbt.com:80/announce
udp://tracker.openbittorrent.com:80/announce
http://tracker.openbittorrent.com/announce
http://tracker.publicbt.com/announce
µTorrent compatible trackers list

Locations

name
KickassTorrents
Torrent hash: 4950F2D6B637D1DCA5DB319099777285B386E606

All Comments

audio
5/10
video
5/10
please, leave only comments related to that torrent
Sign In

se per questo un filmone seguirai celentano stasera!!!!!!!!!
audio: 4video: 4
Aspetto di meglio
audio: 7video: 7
x essere cam è ok..xò io aspetto xkè un filmone così bisogna vederlo una volta e bene!
audio: 6video: 6
Chi si acontenta gode. Graziee
segati allora!!

audio: 6video: 6
guardabile
p 76 e' un segaiolo nn e' capace resta a fare ste kazzate
fake, scene ripetute
Show More All
audio: 1video: 1
audio: 5video: 4

User Opinions

Report a bug