Sherlock Holmes A Game of Shadows 2011 CAM NEW SOURCE XViD - IN

seeders: 0
leechers: 0
updated: 1 week ago
Added on Dec 30, 2011 in Movies
Torrent verified. Downloaded 0 times.

Summary:
Sherlock Holmes and his sidekick Dr. Watson join forces to outwit and bring down their fiercest adversary, Professor Moriarty.
Written by Valkyrie82.62K
report summary
Sherlock Holmes A Game of Shadows 2011 CAM NEW SOURCE XViD - IN (Size: 1.96 GB)
  noshitsherlock.rar 47.68 MB
  noshitsherlock.rar 47.68 MB
  noshitsherlock.rar 47.68 MB
  noshitsherlock.rar 47.68 MB
  noshitsherlock.rar 47.68 MB
  noshitsherlock.rar 47.68 MB
  noshitsherlock.rar 47.68 MB
  noshitsherlock.rar 47.68 MB
  noshitsherlock.rar 47.68 MB
  noshitsherlock.rar 47.68 MB
  noshitsherlock.rar 47.68 MB
  noshitsherlock.rar 47.68 MB
  noshitsherlock.rar 47.68 MB
  noshitsherlock.rar 47.68 MB
  noshitsherlock.rar 47.68 MB
  noshitsherlock.rar 47.68 MB
  noshitsherlock.rar 47.68 MB
  noshitsherlock.rar 47.68 MB
  noshitsherlock.rar 47.68 MB
  noshitsherlock.rar 47.68 MB
  noshitsherlock.rar 47.68 MB
  noshitsherlock.rar 47.68 MB
  noshitsherlock.rar 47.68 MB
  noshitsherlock.rar 47.68 MB
  noshitsherlock.rar 47.68 MB
  noshitsherlock.rar 47.68 MB
  noshitsherlock.rar 47.68 MB
  noshitsherlock.rar 47.68 MB
  noshitsherlock.rar 47.68 MB
  noshitsherlock.rar 47.68 MB
  And 16 files more

Description

,
. http://www.scenetime.com/signup.php ---> Hottest scene tracker on the net !!!
Scenetime lucky draw is started , join now and be the winner . offer is limited

Join Now http://www.scenetime.com/signup.php

seed back for speed






...................................NFO:.................................................ooooo oooo oooo oooooooo8 oooooooooo o88 oooooooooo o ooooo
888 8888o 88 888 888 888 oooo 888 888 888 888
888 88 888o88 888oooooo 888oooo88 888 888oooo88 8 88 888
888 88 8888 888 888 888 888 88o 8oooo88 888 o
o888o o88o 88 o88oooo888 o888o o888o o888o 88o8 o88o o888o o888ooooo88


TITLE:

Sherlock Holmes A Game of Shadows 2011 CAM NEW SOURCE XViD - INSPiRAL

IMDB:

http://www.imdb.com/title/tt1515091/


SOURCES:

VIDEO - 26k
AUDIO - 26k
SUBS - ENG HC

STATS:

Video
ID : 0
Format : MPEG-4 Visual
Format profile : Advanced Simple@L5
Format settings, BVOP : 2
Format settings, QPel : No
Format settings, GMC : No warppoints
Format settings, Matrix : Default (MPEG)
Muxing mode : Packed bitstream
Codec ID : XVID
Codec ID/Hint : XviD
Duration : 2h 0mn
Bit rate : 2 165 Kbps
Width : 720 pixels
Height : 304 pixels
Display aspect ratio : 2.35:1
Frame rate : 25.000 fps
Color space : YUV
Chroma subsampling : 4:2:0
Bit depth : 8 bits
Scan type : Progressive
Compression mode : Lossy
Bits/(Pixel*Frame) : 0.396
Stream size : 1.82 GiB (94%)
Writing library : XviD 64

Audio
ID : 1
Format : MPEG Audio
Format version : Version 1
Format profile : Layer 3
Mode : Joint stereo
Mode extension : MS Stereo
Codec ID : 55
Codec ID/Hint : MP3
Duration : 2h 0mn
Bit rate mode : Constant
Bit rate : 128 Kbps
Channel(s) : 2 channels
Sampling rate : 44.1 KHz
Compression mode : Lossy
Stream size : 110 MiB (6%)
Alignment : Split accross interleaves
Interleave, duration : 40 ms (1.00 video frame)
Interleave, preload duration : 500 ms


NOTES:

First off thanks too 26k for the files and to whoever cammed this nice looking cam :D
Right to clear up why not use unknowns line .....well started off doing it and it was missing a 1 or 2 here and there and got
to around 13mins in and there was like a 11-12 sec jump and it carry on this way ...almost 1min missing in total,but when its secs
here and there it ends up being butchered to death....
Now if someone wants to give me full audio untouched then ....there can be a TS,otherwise i guess unknown as the line and could always
sync it to this better video.

Now onto the source ...video was nice but had some camera movement specially in the first 2mins 38sec and also was cammed at an angle.Colours were
nice and so was the brightness and contrast for a cam really.There is a slight pulse to the video aswell but nothing major at all.
Audio for cam is really nice but did have a hiss and the levels needed a tweaking and it was also slightly oos.

Workdone ...shitloads.
Firstly took the audio stripped it and dropped that into adobe and removed the hiss and then changed all the bands in the EQ settings to make it sound
pretty dam good for cam audio.And then finally save and remuxed.
Now the video was 3.5gig and for some reason at the end it repeated itself,so had to find the end and cut the rest off and also remove the trailors ( batman
looked good ) from the start.
Once done it left me with roughly a 2gig file give or take ...hence the size of this file as i didn't want to lose any bitrate.
Now i had to cut the first 2mins 38secs and crop and rotate that differently ....so the AR is slight off for this part,but not badly.Also changed all the brightness,
contrast,colours etc....and saved it.
From there i used a quad filter to level the video up and used the same filter settings as i did for the first 2mins 38secs minus the cropping and then once done
appended both files together.

Now the subs are not homemade but original so now we have the correct subs in the right places :D

Overall a nice looking and sounding cam ...v 8.5 a 8 based on 10 being best ever.


SCREENS:

image
image
image
image
image
image
image


GREETZ:

Past,Present and Future

Related Torrents

torrent name size files age seed leech

Sharing Widget


Download torrent
1.96 GB
seeders:0
leechers:0
Sherlock Holmes A Game of Shadows 2011 CAM NEW SOURCE XViD - IN

Trackers

tracker name Status
udp://tracker.publicbt.com:80/announce
outdated
http://tracker.openbittorrent.com/announce
outdated
udp://tracker.openbittorrent.com:80/announce
outdated
http://tracker.publicbt.com/announce
deleted
µTorrent compatible trackers list

Locations

name
ThePirateBay
Limetorrents
Torrent hash: f4e5c6831537d34266c8e9cd44bddd0edd16a83a

All Comments

audio
10/10
video
10/10
please, leave only comments related to that torrent
or sign-in


User Opinions

Report a bug