Sherlock Holmes 2010 DVDRip XviD-SPRiNTER

seeders: 1
leechers: 0
updated:
Added in Movies
Torrent verified. Downloaded 207 times.

Summary:

Sherlock Holmes and Watson are on the trail of a criminal and scientific mastermind who seems to control monsters and creations which defy belief.

Written by TheStrength54.8K
Available in versions: Blu-RayDVDRip
Sherlock Holmes 2010 DVDRip XviD-SPRiNTER (Size: 708.47 MB)
  sprinter-sherlh.avi 702.06 MB
  sprinter-sherlh.nfo 3.36 KB
  sprinter-sherlh.jpg 1.43 KB
  Sample

Description

Plot: Sherlock Holmes and Watson are on the trail
of a criminal and scientific mastermind who seems
to control monsters and creations which defy belief.



Release notes:

Enjoy!

Format : AVI
Format/Info : Audio Video Interleave
File size : 702 MiB
Duration : 1h 29mn
Overall bit rate : 1 101 Kbps
Writing application : VirtualDubMod 1.5.10.2 (build 2540/release)
Writing library : VirtualDubMod build 2540/release

Video:

ID : 0
Format : MPEG-4 Visual
Format profile : AdvancedSimple@L5
Format settings, BVOP : Yes
Format settings, QPel : No
Format settings, GMC : No warppoints
Format settings, Matrix : Default (H.263)
Codec ID : XVID
Codec ID/Hint : XviD
Duration : 1h 29mn
Bit rate : 985 Kbps
Width : 576 pixels
Height : 320 pixels
Display aspect ratio : 16:9
Frame rate : 23.976 fps
Resolution : 24 bits
Colorimetry : 4:2:0
Scan type : Progressive
Bits/(Pixel*Frame) : 0.223
Stream size : 628 MiB (89%)
Writing library : XviD 1.2.1 (UTC 2008-12-04)

Audio:

ID : 1
Format : MPEG Audio
Format version : Version 1
Format profile : Layer 3
Format_Settings_Mode : Joint stereo / MS Stereo
Codec ID : 55
Codec ID/Hint : MP3
Duration : 1h 29mn
Bit rate mode : Variable
Bit rate : 103 Kbps
Minimum bit rate : 32.0 Kbps
Channel(s) : 2 channels
Sampling rate : 48.0 KHz
Resolution : 16 bits
Stream size : 65.9 MiB (9%)
Alignment : Aligned on interleaves
Interleave, duration : 24 ms (0.58 video frame)
Interleave, preload duration : 178 ms
Writing library : LAME3.95
Encoding settings : -m j -V 4 -q 2 -lowpass 18 --vbr-old -b 32

Related Torrents

torrent name size files age seed leech

Sharing Widget


Download torrent
708.47 MB
seeders:1
leechers:0
Sherlock Holmes 2010 DVDRip XviD-SPRiNTER



To share this torrent use the code below and insert it into comments, status messages, forum posts or your signature.

Torrent: Sherlock Holmes 2010 DVDRip XviD-SPRiNTER

Trackers

tracker name
udp://open.demonii.com:1337/announce
udp://tracker.istole.it:80/announce
udp://tracker.publicbt.com:80/announce
http://nemesis.1337x.org/announce
udp://tracker.openbittorrent.com:80/announce
http://genesis.1337x.org:1337/announce
udp://tracker.1337x.org:80/announce
http://trackedbyet.info:420/announce
udp://fr33domtracker.h33t.com:3310/announce
udp://tracker.ccc.de:80/announce
ĀµTorrent compatible trackers list

Locations

name
ThePirateBay
Torrentzap
ExtraTorrent
Torrentzap
SumoTorrent
Torrent hash: 567c8e003c7ad647a952fb1393b4a7555b561279

All Comments

audio
9/10
video
10/10
please, leave only comments related to that torrent
Sign In

nees more seeds
non e' gli stessi attori del film 2009 its not the same actor of 2009 :(
Be aware! This is not the movie with Robert Downey Jr. from 2009. It's the "The Asylum" version made in 2010 with David Gareth Lloyd. If you want to watch the first on search for Sherlock Holmes 2009.
thank u so much. nice print nice audio!
fake shit don even look at this shit fuck this guy
fake! it's old film
So hows the quality ? is it really a DVD rip ?
plz post your feedback guys
thanks

User Opinions

Lodyl3051, jamido628, jukk221, Geets78, vinay4u1956, samerkb46, miggi000710
NZ Clarky63, MDown15, M10A4
Report a bug