Advertising (remove)

[Sexanime4you.ru]Love is the Number of Keys

seeders: 0
leechers: 0
Added on Jan 4, 2012 by sasanid43 in XXX > Hentai
Downloaded 0 times.

[Sexanime4you.ru]Love is the Number of Keys (Size: 218.36 MB)
  [SexAnime4you.ru]Love_is_the_number_of_keys.avi 218.36 MB
Advertising (remove)

Description

image

Love is the Number of Keys:
Jyun Amanuma is on his own for the first time. His father transferred overseas for his job, so he moves into an apartment as the apartment manager. One day, he witnessess his tenant having hot sex. The apartment owner tells him that this is a sex service apartment complex! Every night all the rooms in the apartments come alive with lustful action! Jyun joins in on the fun! Watch his torrid escapades with Sumire, the owner, Marina, the waitress, Miki, the nurse, and more sexy beauties!

Release from :
SexAnime4you

Show Information :
Year: 2002
Runtime: 1 episode (~30 min)
Categories: Hentai

File Information :
Subtitles:yes(english)
D:dlia saita sexanime[Sexanime4you.ru]Love is the Number of Keys[SexAnime4you.ru]Love_is_the_number_of_keys.avi
General
Complete name : D:dlia saita sexanime[Sexanime4you.ru]Love is the Number of Keys[SexAnime4you.ru]Love_is_the_number_of_keys.avi
Format : AVI
Format/Info : Audio Video Interleave
File size : 218 MiB
Duration : 28mn 55s
Overall bit rate : 1 055 Kbps
Writing application : Nandub v1.0rc2
Writing library : Nandub build 1852/release
Video #0
ID : 0
Format : MPEG-4 Visual
Codec ID : DIV3
Codec ID/Hint : DivX 3 Low
Duration : 28mn 55s
Bit rate : 900 Kbps
Width : 800 pixels
Height : 600 pixels
Display aspect ratio : 4:3
Frame rate : 23.976 fps
Color space : YUV
Chroma subsampling : 4:2:0
Bit depth : 8 bits
Compression mode : Lossy
Bits/(Pixel*Frame) : 0.078
Stream size : 186 MiB (85%)
Audio #1
ID : 1
Format : MPEG Audio
Format version : Version 1
Format profile : Layer 3
Mode : Joint stereo
Mode extension : MS Stereo
Codec ID : 55
Codec ID/Hint : MP3
Duration : 28mn 55s
Bit rate mode : Variable
Bit rate : 142 Kbps
Minimum bit rate : 32.0 Kbps
Channel(s) : 2 channels
Sampling rate : 48.0 KHz
Compression mode : Lossy
Stream size : 29.4 MiB (13%)
Alignment : Aligned on interleaves
Interleave, duration : 24 ms (0.58 video frame)
Interleave, preload duration : 350 ms
Writing library : LAME3.92
Encoding settings : -m j -V 5 -q 2 -lowpass 18 --vbr-new -b 32

Screens:
Img1
img2
img3

Related Torrents

torrent name size files age seed leech

Sharing Widget


Download torrent
218.36 MB
seeders:0
leechers:0
[Sexanime4you.ru]Love is the Number of Keys

Trackers

tracker name Status checked seeders leechers downloads
udp://tracker.publicbt.com:80/announce
outdated 24 Nov 2013 - - -
udp://tracker.openbittorrent.com:80/announce
outdated 24 Nov 2013 - - -
http://tracker.openbittorrent.com/announce
outdated 02 Mar 2013 - - -
http://tracker.publicbt.com/announce
deleted 11 Mar 2013 - - -
µTorrent compatible trackers list

Locations

name
KickassTorrents
Torrent hash: 7D3AADC462DCF8ED5BA3DE0103894CA365A75C9A

All Comments

audio
0/10
video
0/10
please, leave only comments related to that torrent
or sign-in

User Opinions

HsRsn28.14K, tinylikesme287, scott_meeks262
b1gk5838, mak_abbas31
Report a bug