Secretariat 2010 PPVRiP READNFO XViD-iMAGiNE

seeders: 0
leechers: 0
updated: 17 hours ago
Added on Dec 26, 2010 in Movies
Torrent verified. Downloaded 0 times.

Summary:
Penny Chenery Tweedy and colleagues guide her long-shot but precocious stallion to set, in 1973, the unbeaten record for winning the Triple Crown.
Written by Pahly158.52K
report summary
Available in versions: 1080p720pBDRipHDRiPDVDRipx264
Secretariat 2010 PPVRiP READNFO XViD-iMAGiNE (Size: 1.29 GB)
  Secretariat PPVRiP READNFO XViD - IMAGiNE

Description

Secretariat 2010 PPVRiP READNFO XViD-iMAGiNE



Plot
Genre : Drama / Family / History

Plot : Housewife and mother Penny Chenery agrees to take over her ailing father's Virginia-based Meadow Stables, despite her lack of horse-racing knowledge. Against all odds, Chenery -- with the help of veteran trainer Lucien Laurin -- manages to navigate the male-dominated business, ultimately fostering the first Triple Crown winner in twenty-five years.

Infomation
*********** **** **** *** ******** *********** **** *** **********

*+* +*+*+* *+*+*+ *+* *+* *+* *+* *+* *+*+* *+* *+*

+*+ +*+ +*+*+ +*+ +*+ +*+ +*+ +*+ *+*+*+ +*+ +*+

+$+ +$+ +*+ +$+ +$++*++$++* *$* +$+ +$+ +*+ +$+ +$++*++$

+$+ +$+ +$+ +$+ +$+ +$+ +$+$ +$+ +$+ +$+$+$ +$+

$+$ $+$ $+$ $+$ $+$ $+$ $+$ $+$ $+$ $+$+$ $+$

$$$$$$$$$$$ $$$ $$$ $$$ $$$ $$$$$$$$ $$$$$$$$$$$ $$$ $$$$ $$$$$$$$$$









Another Fine Release Brought to you from - IMAGiNE

Ripper ...........:IMAGiNE IMDB Rating.......:7.2/10
Video Codec.......:XVID Release Date......:08/12/10
Audio Codec.......:AC-3 Theatre Date......:02/10/10
Audio Bitrate.....:128 Runtime...........:1h 59mn
Subtitles.........:NIL Language..........:ENGLISH
Resolution........:704 x 400 IMDb URL..........:http://www.imdb.com/title/tt1028576/
DETAILS:

Video
ID : 0
Format : MPEG-4 Visual
Format profile : Advanced Simple@L5
Format settings, BVOP : Yes
Format settings, QPel : No
Format settings, GMC : No warppoints
Format settings, Matrix : Default (H.263)
Muxing mode : Packed bitstream
Codec ID : XVID
Codec ID/Hint : XviD
Duration : 1h 59mn
Bit rate : 1 385 Kbps
Width : 704 pixels
Height : 400 pixels
Display aspect ratio : 16:9
Frame rate : 29.970 fps
Color space : YUV
Chroma subsampling : 4:2:0
Bit depth : 8 bits
Scan type : Progressive
Bits/(Pixel*Frame) : 0.164
Stream size : 1.16 GiB (91%)
Writing library : XviD 1.1.2 (UTC 2006-11-01)

Audio
ID : 1
Format : AC-3
Format/Info : Audio Coding 3
Mode extension : CM (complete main)
Codec ID : 2000
Duration : 1h 59mn
Bit rate mode : Constant
Bit rate : 128 Kbps
Channel(s) : 2 channels
Channel positions : Front: L R
Sampling rate : 48.0 KHz
Bit depth : 16 bits
Stream size : 109 MiB (8%)
Alignment : Aligned on interleaves
Interleave, duration : 33 ms (1.00 video frame)
Interleave, preload duration : 512 ms


SOURCES:

VIDEO:Vobs Thanks Lkrg
AUDIO:Vobs Thanks Lkrg

NOTES:

IMAGiNE bringing you another release.......... Secretariat

Here we are with our encode of this one... We we're sent the original vob's from our friend's
at LKRG so thanks bro... First off we want to clarify what type of source this is, this is a PPVRiP
BUT it was recorded with an HD cam sitting in front of the tv... As you can tell by the vertical
wavy lines and the blurred 2 digit channel at the bottom right, also the source files had to be
cropped so you could tell it was cammed.

We did our normal filtering to the video of changing the brightness,contrast,colour, resize etc...
The audio is AC3 so it was just a matter of muxing it to the video.
We do realize the retail release of this is right around the corner, but thought to give this to
everyone just incase they want it...

Enjoy folks.

GREETS:



FLAWL3SS,ViSiON,FUSiON,Rx,SecretMyth,BirdFlu,ELEKTRI4KA and Autotron

And to all the other p2p grps past and present



Looking for these,syncers,cammers,silver supplier.....Have anything to offer????......

Contact us imaginegroup@hushmail.com

http://www.imdb.com/title/tt1028576/


SCREENS
=======

http://img196.imageshack.us/i/vlcsnap3219046.png

http://img25.imageshack.us/img25/679/vlcsnap3219963.png

http://img338.imageshack.us/img338/1893/vlcsnap3219607.png

http://img651.imageshack.us/img651/6915/vlcsnap3219469.png

Related Torrents

torrent name size files age seed leech

Sharing Widget


Download torrent
1.29 GB
seeders:0
leechers:0
Secretariat 2010 PPVRiP READNFO XViD-iMAGiNE



To share this torrent use the code below and insert it into comments, status messages, forum posts or your signature.

Torrent: Secretariat 2010 PPVRiP READNFO XViD-iMAGiNE

Trackers

tracker name Status
http://tracker.istole.it/announce
active
udp://tracker.openbittorrent.com:80/announce
active
http://tracker.openbittorrent.com/announce
active
udp://tracker.istole.it:80/announce
active
udp://tracker.publicbt.com:80/announce
active
http://tracker.publicbt.com/announce
deleted
http://thedesiadda.com:2710/7fn56a48apmzjf16i0r5nskejta9tag0/announce
error
ĀµTorrent compatible trackers list

Locations

name
ThePirateBay
1337x
Limetorrents
Limetorrents
Torrent hash: 06f0f7bc617b6ad4c09897a6099bec3f85e0cebb

All Comments

audio
0/10
video
0/10
please, leave only comments related to that torrent
or sign-in

Report a bug