Scream 4 (2011) Dual Audio [Hindi-Eng]@Mastitorrents

seeders: 0
leechers: 0
updated:
Added by mastitorrents20.28K in Movies
Torrent verified. Downloaded 0 times.

Summary:

Ten years have passed, and Sidney Prescott, who has put herself back together thanks in part to her writing, is visited by the Ghostface Killer.

Written by 4D722E446F6D246.8K
Available in versions: 1080p720pHDRiPDVDRip
Scream 4 (2011) Dual Audio [Hindi-Eng]@Mastitorrents (Size: 510.3 MB)
  -=MTR=- [Masti Torrents Releasers].txt 155 bytes
  Scream 4 (2011) Dual Audio [Hin-Eng](www.mastitorrents.com).mkv 504.48 MB
  Scream 4 2011 Sample.mkv 5.83 MB
  www.mastitorrents.com.txt 507 bytes

Description

[font=Georgia]mastitorrents.com

http://mastitorrents.com/forums/index.php

General
Format : Matroska
File size : 504 MiB
Duration : 1h 43mn[end credit cut]
Overall bit rate : 679 Kbps Encoded date : UTC 2011-07-31 08:58:21 Writing application : mkvmerge v4.7.0 ('Just Like You Imagined') built on Apr 21 2011 01:13:14
Writing library : libebml v1.2.0 + libmatroska v1.1.0
Video
ID : 1
Format : AVC
Format/Info : Advanced Video Codec
Format profile : High@L4.0 Format settings, CABAC : Yes
Format settings, ReFrames : 3 frames
Muxing mode : Container profile=Unknown@4.0
Codec ID : V_MPEG4/ISO/AVC
Duration : 1h 43mn
Bit rate : 474 Kbps
Width : 720 pixels
Height : 394 pixels
Display aspect ratio : 16:9
Frame rate : 23.976 fps
Resolution : 24 bits
Colorimetry : 4:2:0
Scan type : Progressive
Bits/(Pixel*Frame) : 0.070
Stream size : 351 MiB (70%)
Title : imkhan
Writing library : x264 core 104 r1683 62997d6 Encoding settings : cabac=1 / ref=3 / deblock=1:0:0 / analyse=0x3:0x133 / me=umh / subme=7 / psy=1 / psy_rd=1.00:0.00 / mixed_ref=1 / me_range=16 / chroma_me=1 / trellis=1 / 8x8dct=1 / cqm=0 / deadzone=21,11 / fast_pskip=1 / chroma_qp_offset=-2 / threads=6 / sliced_threads=0 / nr=0 / decimate=1 / interlaced=0 / constrained_intra=0 / bframes=3 / b_pyramid=0 / b_adapt=1 / b_bias=0 / direct=1 / weightb=1 / open_gop=0 / weightp=2 / keyint=240 / keyint_min=24 / scenecut=40 / intra_refresh=0 / rc_lookahead=40 / rc=crf / mbtree=1 / crf=22.0 / qcomp=0.60 / qpmin=10 / qpmax=51 / qpstep=4 / vbv_maxrate=700 / vbv_bufsize=600 / crf_max=0.0 / ip_ratio=1.40 / aq=1:1.00 / nal_hrd=none Language : Hindi Audio #1 ID : 2
Format : MPEG Audio
Format version : Version 1 Format profile : Layer 3
Codec ID : A_MPEG/L3
Codec ID/Hint : MP3
Duration : 1h 43mn
Bit rate mode : Constant
Bit rate : 96.0 Kbps
Channel(s) : 2 channels
Sampling rate : 44.1 KHz
Resolution : 16 bits
Stream size : 71.3 MiB (14%)
Title : imkhan
Language : Hindi
Audio #2
ID : 3
Format : MPEG Audio
Format version : Version 1
Format profile : Layer 3
Codec ID : A_MPEG/L3
Codec ID/Hint : MP3
Duration : 1h 43mn
Bit rate mode : Constant
Bit rate : 96.0 Kbps
Channel(s) : 2 channels
Sampling rate : 44.1 KHz
Resolution : 16 bits
Stream size : 71.3 MiB (14%)
Title : imkhan

[/font]


http://www.desiupload.com/out.php/i904000_56209761242837750980.jpg
http://www.desiupload.com/out.php/i904002_79592822196763793545.jpg
http://www.desiupload.com/out.php/i904003_51327305787152707030.jpg
http://www.desiupload.com/out.php/i904004_55456014858974189536.jpg
http://www.desiupload.com/out.php/i904005_10094019206080090834.jpg
http://www.desiupload.com/out.php/i903998_14961649210650959147.jpg
http://www.desiupload.com/out.php/i903999_46216180858133915670.jpg

Sharing Widget


Download torrent
510.3 MB
seeders:0
leechers:0
Scream 4 (2011) Dual Audio [Hindi-Eng]@Mastitorrents



To share this torrent use the code below and insert it into comments, status messages, forum posts or your signature.

Torrent: Scream 4 (2011) Dual Audio [Hindi-Eng]@Mastitorrents

Trackers

tracker name
udp://tracker.publicbt.com:80/announce
udp://tracker.openbittorrent.com:80/announce
udp://tracker.istole.it:80/announce
http://tracker.csze.com/announce
http://tracker.irc.su/announce
http://pow7.com/announce
http://t1.pow7.com/announce
http://10.rarbg.com/announce
http://tracker.token.ro/announce
http://www.mastitorrents.com:30303/000058c9979c0d19b7804761292bbd1b/announce
ĀµTorrent compatible trackers list

Locations

name
KickassTorrents
ThePirateBay
Torrent hash: 2A031429F5B44A903C5F988CE6FC362EAD4E8B39

All Comments

audio
7/10
video
8/10
please, leave only comments related to that torrent
Sign In

help i'm stucked at 60.6%
print no so good but ok not that bad
audio: 6video: 8
Must See..
audio: 8video: 8
GOOD QUALITY ..

User Opinions

Report a bug