Rock Of Ages 2012 DVDRIP XviD-MAXIMUS

seeders: 11
leechers: 0
updated:
Added by Hackullus42.59K in Movies
Torrent verified. Downloaded 745 times.

  • add Rock of Ages to bookmarks
  • Release date: 15 June 2012
  • Writers: Justin Theroux (screenplay), Chris D'Arienzo (screenplay), Allan Loeb (screenplay), Chris D'Arienzo (musical book)
  • Director: Adam Shankman
  • Language: English
Summary:

A small town girl and a city boy meet on the Sunset Strip, while pursuing their Hollywood dreams.

Written by MoonChild19.79K
Available in versions: 1080p720pBDRipHDRiPDVDRipTeleSyncCam
Rock Of Ages 2012 DVDRIP XviD-MAXIMUS (Size: 807.25 MB)
  Rock Of Ages 2012 DVDRIP XviD-MAXIMUS.avi 807.25 MB
  RoA.nfo 2.71 KB
  Torrent downloaded from AhaShare.com.txt 59 bytes
  Torrent downloaded from extratorrent.com.txt 40 bytes
  Torrent downloaded from Rarbg.com.txt 33 bytes
  torrent downloaded from H33T.com.txt 32 bytes

Description

image

Complete name : CRock Of Ages 2012 DVDRIP XviD-MAXIMUS\Rock Of Ages 2012 DVDRIP XviD-MAXIMUS.avi
Format : AVI
Format/Info : Audio Video Interleave
File size : 807 MiB
Duration : 2h 1mn
Overall bit rate : 933 Kbps
Writing application : VirtualDubMod 1.5.10.2 (build 2540/release)
Writing library : VirtualDubMod build 2540/release

Video
ID : 0
Format : MPEG-4 Visual
Format profile : Advanced Simple@L5
Format settings, BVOP : 2
Format settings, QPel : No
Format settings, GMC : No warppoints
Format settings, Matrix : Default (H.263)
Muxing mode : Packed bitstream
Codec ID : XVID
Codec ID/Hint : XviD
Duration : 2h 1mn
Bit rate : 795 Kbps
Width : 608 pixels
Height : 256 pixels
Display aspect ratio : 2.40:1
Frame rate : 23.976 fps
Color space : YUV
Chroma subsampling : 4:2:0
Bit depth : 8 bits
Scan type : Progressive
Compression mode : Lossy
Bits/(Pixel*Frame) : 0.213
Stream size : 688 MiB (85%)
Writing library : XviD 64

Audio
ID : 1
Format : MPEG Audio
Format version : Version 1
Format profile : Layer 3
Codec ID : 55
Codec ID/Hint : MP3
Duration : 2h 1mn
Bit rate mode : Constant
Bit rate : 128 Kbps
Channel(s) : 2 channels
Sampling rate : 44.1 KHz
Compression mode : Lossy
Stream size : 111 MiB (14%)
Alignment : Split accross interleaves
Interleave, duration : 42 ms (1.00 video frame)
Interleave, preload duration : 500 ms
Writing library : LAME3.98.4

image
image
image

Related Torrents

torrent name size files age seed leech

Sharing Widget


Download torrent
807.25 MB
seeders:30
leechers:2
Rock Of Ages 2012 DVDRIP XviD-MAXIMUS



To share this torrent use the code below and insert it into comments, status messages, forum posts or your signature.

Torrent: Rock Of Ages 2012 DVDRIP XviD-MAXIMUS

Trackers

tracker name
udp://tracker.publicbt.com:80/announce
udp://tracker.istole.it:80/announce
udp://coppersurfer.tk:6969/announce
udp://tracker.openbittorrent.com:80/announce
udp://glotorrents.pw:6969/announce
udp://tracker4.piratux.com:6969/announce
udp://open.demonii.com:1337/announce
udp://tracker.seedceo.com:2710/announce
udp://fr33domtracker.h33t.com:3310/announce
udp://tracker.beeimg.com:6969/announce
ĀµTorrent compatible trackers list

Locations

name
KickassTorrents
ThePirateBay
ExtraTorrent
Torrent hash: 4A72E0596DF56946DCDBEAE1D6DDFB55CA997B52

Top Comments

22
Mares17104
audio: 8video: 9
Great rip, thanksimageimageimage
18
anonymous
the audio is fine on my end. Try using VLC like EVERYONE on here's already said a million times. duh
11
anonymous
No it's not try using VLC, the other torrent was out of sync mr shouty.

All Comments

audio
8/10
video
8/10
please, leave only comments related to that torrent
Sign In

audio: 10video: 10
thanks
great movie great quality thanks
audio: 10video: 10
Loved movie, great music, perfect download. only issue. cineva protected. put on flashdrive to play on bluray. wouldn't play not on xbox360 either
audio: 10video: 10
Great movie and more, but in the end the last 10 or 20 minutes of the movie are missing. Great torrent though...
Show More All

User Opinions

lemanskee5130, markozlatni1420, olhos1072, godslinux976, MaxRider730, stylazation556, ac1ionm4n382, blackhawk184, viliukas113, fahdraza49 ... And 1939 more
electsub3672, babatton1270, MjrH@voc1048, Riggsy719, flames_of_h718, luisam2631, softball0086562, bilaltayyab31326, hoges6, suelec4 ... And 135 more
Report a bug