Robin Hood 2010 TS XViD - IMAGiNE

seeders: 0
leechers: 0
updated:
Added in Movies
Torrent verified. Downloaded 10 times.

  • add Robin Hood to bookmarks
  • Release date: 14 May 2010
  • Writers: Brian Helgeland (screenplay), Brian Helgeland (story), Ethan Reiff (story), Cyrus Voris (story)
  • Director: Ridley Scott
  • Language: English
Summary:

In 13th century England, Robin and his band of marauders confront corruption in a local village and lead an uprising against the crown that will forever alter the balance of world power.

Written by 5fingerdis64.83K
Robin Hood 2010 TS XViD - IMAGiNE (Size: 1.39 GB)
  Release info.txt 4.66 KB
  Robin Hood 2010 TS XViD - IMAGiNE.avi 1.37 GB
  sample.avi 16.22 MB
  Torrent downloaded from AhaShare.com.txt 59 bytes
  Torrent downloaded from extratorrent.com.txt 48 bytes
  Torrent downloaded from Kingdom-KVCD.net.txt 52 bytes
  Torrent downloaded from thepiratebay.org.txt 48 bytes

Description

Love for All and Sharing is the first step to solving all the problems of humanity.

Websites I want to share.


http://www.shareintl.org/


http://www.lightmiddleway.comThank you very much

No credit for me...credit to EVERYONE for sharing

http://thepiratebay.org/user/raymondhome/

PLOT
The story of an archer in the army of Richard Coeur de Lion who fights against the Norman invaders and becomes the legendary hero known as Robin Hood.

IMDb RATING: 7.1/10 (17,083 votes)

Runtime...........:2h 11mn
Video
Format : MPEG-4 Visual
Format profile : Streaming Video@L1
Format settings, BVOP : Yes
Format settings, QPel : No
Format settings, GMC : No warppoints
Format settings, Matrix : Default
Muxing mode : Packed bitstream
Codec ID : XVID
Codec ID/Hint : XviD
Duration : 2h 11mn
Bit rate : 1 356 Kbps
Width : 720 pixels
Height : 304 pixels
Display aspect ratio : 2.35
Frame rate : 23.976 fps
Resolution : 24 bits
Colorimetry : 4:2:0
Scan type : Progressive
Bits/(Pixel*Frame) : 0.258
Stream size : 1.25 GiB (91%)
Writing library : XviD 50
Audio
Format : MPEG Audio
Format version : Version 1
Format profile : Layer 3
Codec ID : 55
Codec ID/Hint : MP3
Duration : 2h 11mn
Bit rate mode : Constant
Bit rate : 128 Kbps
Channel(s) : 2 channels
Sampling rate : 44.1 KHz
Resolution : 16 bits
Stream size : 120 MiB (9%)
Alignment : Split accross interleaves
Interleave, duration : 42 ms (1.00 video frame)
Interleave, preload duration : 500 ms

IMAGiNE NOTES
First off many thanks to ELEKTRI4KA for the video source and PrisM for the line audio... Thanks both :)
We know this is a bit late, but we wanted to release this to those that may be waiting on it :P
Just a quick note on this... This is an okay video source, it has some spots that are dark and light so be warned.
Audio is nice so did not need to do anything but fix the sync issues with it. It lasted for around 1:45 minutes.
Also had to change the AR from 2.2:1 to 2.35:1

credit IMAGiNE & to all the people who made it possible for us to share this...especially EVERYONE involve in the production of the movie...IF YOU LIKE IT...BUY IT :)

BIG BIG BIG GREETZ & THANKS:
ALL members & STAFFS of PIRATEBAY, EXTRATORRENT, KINGDOM, DEMONOID, AHASHARE & MOVIE-TORRENTZ :)
KaOsUSC, Motley Crue, InFeCtiouS, BADASS, W1ck3d1nt3ntz, ceo54, DaRkReAlM, ghostman, karakurachow, megaplay, Emery1337x, SaM, geordieboy1979, timamirrockdude, Noir, Shedevil, bone111, JorgeMontana, BlueLady, UniversalAbsurdity, mc68, TheFalcon007, pardeep333, X, DR67, DiNGiE, xclusive666, pro2kon, EMUworld, wrath, oziman, rubak1, BigPerm1828, skynetcentral, IZON, bluepeas, extremezone & many more :)
ALL the awesome people who are SHARING (ALL THE UPLOADERS, THE RIPPERS, THE SCENE GROUPS, ETC, THE WHOLE P2P COMMUNITY, even the CRITICIZERS )
***wish i could list everyone***Thank you very much everyone & i mean EVERYONE :)

*****help what we can with others in need...the world is ONE big family*****

Related Torrents

torrent name size files age seed leech

Sharing Widget


Download torrent
1.39 GB
seeders:0
leechers:0
Robin Hood 2010 TS XViD - IMAGiNE



To share this torrent use the code below and insert it into comments, status messages, forum posts or your signature.

Torrent: Robin Hood 2010 TS XViD - IMAGiNE

Trackers

tracker name
http://genesis.1337x.org:1337/announce
http://exodus.1337x.org/announce
http://nemesis.1337x.org/announce
http://tracker.openbittorrent.com/announce
udp://tracker.publicbt.com:80/announce
http://shipwreck.me/announce.php
udp://tracker.openbittorrent.com:80/announce
http://fr33dom.h33t.com:3310/announce
http://tracker.publicbt.com/announce
µTorrent compatible trackers list

Locations

name
ThePirateBay
1337x
ExtraTorrent
SumoTorrent
Torrent hash: 11db69d4a3d0cdb2d09e5315ba70fbef45d406d7

Top Comments

2
deffjam5557578
audio: 5video: 9
2
Eaker206
audio: 7video: 7

All Comments

audio
6/10
video
5/10
please, leave only comments related to that torrent
Sign In

audio: 7video: 6
Hi people! Good night! The quality is kind of this: audio(grade 7) and video( grade 6), you can imagine because it's recorded from a digital camera, you can see somethings, kkkk. I liked the movie.
Thank you , much appreciated!
audio: 1video: 1
Not good, very blurry and no subtitles when different language is used. Its terrible and I recommend dont download
audio: 9video: 9
good movie, thank you guys
audio: 5video: 8
excellent
Show More All

User Opinions

Report a bug