River Monsters S03E10 The Lost Reels Himalayan Giant HDTV XviD-tNe

seeders: 0
leechers: 0
updated:
Added by tNe73.72K in TV
Torrent verified. Downloaded 37 times.

  • View all River Monsters episodes
  • Episode title: The Lost Reels - Himalayan Giant
  • Episode: S03E10
  • Air date: 27 May 2011
  • IMDb link: 1476750
  • TVmaze link: River Monsters
  • Original run: 05 April 2009 — Present
  • Summary:

    Jeremy Wade searches the world for legendary and flesh-eating freshwater fish.

    Written by Hobo.hxr2968
Available in versions: 720p480pHDTVWEBRip
River Monsters S03E10 The Lost Reels Himalayan Giant HDTV XviD-tNe (Size: 349.79 MB)
  River.Monsters.S03E10.The.Lost.Reels.Himalayan.Giant.HDTV.XviD-tNe.avi 349.79 MB

Description

Format : AVI
Format/Info : Audio Video Interleave
File size : 350 MiB
Duration : 42mn 7s
Overall bit rate : 1 161 Kbps
Writing application : VirtualDubMod 1.5.10.2 (build 2542/release)
Writing library : VirtualDubMod build 2542/release

Video
ID : 0
Format : MPEG-4 Visual
Format profile : Advanced Simple@L5
Format settings, BVOP : Yes
Format settings, QPel : No
Format settings, GMC : No warppoints
Format settings, Matrix : Default (H.263)
Muxing mode : Packed bitstream
Codec ID : XVID
Codec ID/Hint : XviD
Duration : 42mn 7s
Bit rate : 1 020 Kbps
Width : 624 pixels
Height : 396 pixels
Display aspect ratio : 1.576
Frame rate : 29.970 fps
Color space : YUV
Chroma subsampling : 4:2:0
Bit depth : 8 bits
Scan type : Progressive
Bits/(Pixel*Frame) : 0.138
Stream size : 307 MiB (88%)
Writing library : XviD 58

Audio
ID : 1
Format : MPEG Audio
Format version : Version 1
Format profile : Layer 3
Mode : Joint stereo
Mode extension : MS Stereo
Codec ID : 55
Codec ID/Hint : MP3
Duration : 42mn 7s
Bit rate mode : Variable
Bit rate : 128 Kbps
Channel(s) : 2 channels
Sampling rate : 48.0 KHz
Stream size : 38.2 MiB (11%)
Alignment : Aligned on interleaves
Interleave, duration : 24 ms (0.72 video frame)
Interleave, preload duration : 538 ms

Related Torrents

torrent name size files age seed leech

Sharing Widget


Download torrent
349.79 MB
seeders:0
leechers:0
River Monsters S03E10 The Lost Reels Himalayan Giant HDTV XviD-tNe



To share this torrent use the code below and insert it into comments, status messages, forum posts or your signature.

Torrent: River Monsters S03E10 The Lo...imalayan Giant HDTV XviD-tNe

Trackers

tracker name
http://exodus.1337x.org/announce
http://nemesis.1337x.org/announce
http://genesis.1337x.org:1337/announce
http://tracker.openbittorrent.com/announce
udp://tracker.publicbt.com:80/announce
udp://tracker.openbittorrent.com:80/announce
http://tracker.publicbt.com/announce
µTorrent compatible trackers list

Locations

name
KickassTorrents
ThePirateBay
1337x
Limetorrents
Torrent hash: 56B4A941A6D40EFA7A18F639EF34C793C107AC9D

All Comments

audio
9/10
video
9/10
please, leave only comments related to that torrent
Sign In

audio: 9video: 9
nice copy this is..
thanks.. biggrin

after 00:26:00, though it's playing, the vid froze for about 5~6mins before continuing..
Watch full HD movies, Download Full Games, Watch Tv series!!! Free Limited time access http://freeofferjunkie.info

User Opinions

zingalvs20.05K, xHASTISx1534, SECRET MIND1416, scally20101175, gareth_dance739, Leo_143705, xion621522, Sparkytc345, RcAa295, nrz13731 ... And 22 more
Report a bug