River Monsters S03E10 The Lost Reels Himalayan Giant HDTV XviD-tNe

seeders: 2
leechers: 1
updated: 6 hours ago
Added on May 28, 2011 by tNe58.65K in TV
Torrent verified. Downloaded 15 times.

River Monsters S03E10 The Lost Reels Himalayan Giant HDTV XviD-tNe (Size: 349.79 MB)
  River.Monsters.S03E10.The.Lost.Reels.Himalayan.Giant.HDTV.XviD-tNe.avi 349.79 MB

Description

Format : AVI
Format/Info : Audio Video Interleave
File size : 350 MiB
Duration : 42mn 7s
Overall bit rate : 1 161 Kbps
Writing application : VirtualDubMod 1.5.10.2 (build 2542/release)
Writing library : VirtualDubMod build 2542/release

Video
ID : 0
Format : MPEG-4 Visual
Format profile : Advanced Simple@L5
Format settings, BVOP : Yes
Format settings, QPel : No
Format settings, GMC : No warppoints
Format settings, Matrix : Default (H.263)
Muxing mode : Packed bitstream
Codec ID : XVID
Codec ID/Hint : XviD
Duration : 42mn 7s
Bit rate : 1 020 Kbps
Width : 624 pixels
Height : 396 pixels
Display aspect ratio : 1.576
Frame rate : 29.970 fps
Color space : YUV
Chroma subsampling : 4:2:0
Bit depth : 8 bits
Scan type : Progressive
Bits/(Pixel*Frame) : 0.138
Stream size : 307 MiB (88%)
Writing library : XviD 58

Audio
ID : 1
Format : MPEG Audio
Format version : Version 1
Format profile : Layer 3
Mode : Joint stereo
Mode extension : MS Stereo
Codec ID : 55
Codec ID/Hint : MP3
Duration : 42mn 7s
Bit rate mode : Variable
Bit rate : 128 Kbps
Channel(s) : 2 channels
Sampling rate : 48.0 KHz
Stream size : 38.2 MiB (11%)
Alignment : Aligned on interleaves
Interleave, duration : 24 ms (0.72 video frame)
Interleave, preload duration : 538 ms

Related Torrents

torrent name size files age seed leech

Sharing Widget


Download torrent
349.79 MB
seeders:3
leechers:1
River Monsters S03E10 The Lost Reels Himalayan Giant HDTV XviD-tNe



To share this torrent use the code below and insert it into comments, status messages, forum posts or your signature.

Torrent: River Monsters S03E10 The Lo...imalayan Giant HDTV XviD-tNe

Trackers

tracker name Status
http://exodus.1337x.org/announce
active
http://nemesis.1337x.org/announce
active
http://genesis.1337x.org:1337/announce
active
http://tracker.openbittorrent.com/announce
active
udp://tracker.publicbt.com:80/announce
active
udp://tracker.openbittorrent.com:80/announce
active
http://tracker.publicbt.com/announce
deleted
µTorrent compatible trackers list

Locations

name
KickassTorrents
ThePirateBay
1337x
Limetorrents
Torrent hash: 56B4A941A6D40EFA7A18F639EF34C793C107AC9D

All Comments

audio
9/10
video
9/10
please, leave only comments related to that torrent
or sign-in

0
mudzilla161 • 23 Oct 2011, 06:58
torrent downloaded
Show comment
Awesome thanks heaps
0
zingalvs19.65K • 15 Oct 2011, 09:16
torrent downloaded
Show comment
audio: 9video: 9
nice copy this is..
thanks.. biggrin

after 00:26:00, though it's playing, the vid froze for about 5~6mins before continuing..
0
anonymous • 07 Jul 2011, 07:12 Show comment
Watch full HD movies, Download Full Games, Watch Tv series!!! Free Limited time access http://freeofferjunkie.info
0
Leo_143705 • 05 Jun 2011, 17:15
torrent downloaded
Show comment
Thanks
0
gareth_dance697 • 16 Jun 2013, 11:46
torrent downloaded
Show comment
audio: 9video: 9
0
bernz.artieda106 • 30 Jun 2011, 09:28
torrent downloaded
Show comment
audio: 9video: 9

User Opinions

zingalvs19.65K, xHASTISx1534, SECRET MIND1304, scally20101175, Leo_143705, gareth_dance697, xion621492, RcAa283, GhosT1212106, nrz13731 ... And 19 more
Report a bug