Red.Hill 2010 DVDRip Xvid AC3 LKRG

seeders: 4
leechers: 1
updated:
Added by oziman86.32K in Movies
Torrent verified. Downloaded 61 times.

Summary:

A young police officer must survive his first day's duty in a small country town.

Written by Pahly222.14K
Available in versions: 720pBlu-RayHDRiPDVDRip
Red.Hill 2010 DVDRip Xvid AC3 LKRG (Size: 889.96 MB)
  rhLKRG.avi 889.82 MB
  Cover.jpg 143.27 KB

Description





Format;Avi



File Size:890mb



Video: ID : 0

Format : MPEG-4 Visual

Format profile : Advanced Simple@L5

Format settings, BVOP : Yes

Format settings, QPel : No

Format settings, GMC : No warppoints

Format settings, Matrix : Default (H.263)

Codec ID : XVID

Codec ID/Hint : XviD

Duration : 1h 37mn

Bit rate : 886 Kbps

Width : 720 pixels

Height : 304 pixels

Display aspect ratio : 2.35:1

Frame rate : 23.976 fps

Color space : YUV

Chroma subsampling : 4:2:0

Bit depth : 8 bits

Scan type : Progressive

Bits/(Pixel*Frame) : 0.169

Stream size : 616 MiB (69%)

Writing library : XviD 1.2.1 (UTC 2008-12-04)





Audio: ID : 1

Format : AC-3

Format/Info : Audio Coding 3

Mode extension : CM (complete main)

Codec ID : 2000

Duration : 1h 37mn

Bit rate mode : Constant

Bit rate : 384 Kbps

Channel(s) : 6 channels

Channel positions : Front: L C R, Side: L R, LFE

Sampling rate : 48.0 KHz

Bit depth : 16 bits

Stream size : 267 MiB (30%)

Alignment : Aligned on interleaves

Interleave, duration : 32 ms (0.77 video frame)



Duration:1:37



Release Date:2010



Language:English




Plot: A young police officer must survive his first day's duty in a small country town.



Cast: Ryan Kwanten ...

Shane Cooper

Steve Bisley Steve Bisley ...

Old Bill

Tommy Lewis Tommy Lewis ...

Jimmy Conway

Claire van der Boom Claire van der Boom ...

Alice Cooper

Christopher Davis Christopher Davis ...

Slim

Kevin Harrington Kevin Harrington ...

Barlow




















http://www.imdb.com/title/tt1530983/





Related Torrents

torrent name size files age seed leech

Sharing Widget


Download torrent
889.96 MB
seeders:4
leechers:1
Red.Hill 2010 DVDRip Xvid AC3 LKRG



To share this torrent use the code below and insert it into comments, status messages, forum posts or your signature.

Torrent: Red.Hill 2010 DVDRip Xvid AC3 LKRG

Trackers

tracker name
udp://tracker.openbittorrent.com:80/announce
udp://tracker.publicbt.com:80/announce
http://nemesis.1337x.org/announce
http://tracker.openbittorrent.com/announce
http://tracker.publicbt.com/announce
µTorrent compatible trackers list

Locations

name
KickassTorrents
ExtraTorrent
1337x
Limetorrents
Limetorrents
ThePirateBay
KickassTorrents
Torrent hash: e35a2ab1c984b0a3e67de50aba73dd43de56408e

All Comments

audio
8/10
video
8/10
please, leave only comments related to that torrent
Sign In

great audio and video thanks to all
audio: 10video: 9
Nice quality! Thanx!
Swift download, looking forward to watching.
audio: 10video: 10
Good Quality Aussie movie. nice rip
audio: 10video: 10
Thanks Uploader
audio: 5video: 5
Think twice before downloading this rubbish. This film opens with the lead actor saying, “Honey, have you seen my gun?” As if a Police Officer would forget where he put his firearm. This movie is terrible, cheap budget rubbish - so many ridiculous scenes, you will laugh at how daft this movie is. David in Edinburgh.
audio: 5video: 5
Think twice before downloading this rubbish. This film opens with the lead actor saying, “Honey, have you seen my gun?” As if a Police Officer would forget where he put his firearm. This movie is terrible, cheap budget rubbish - so many ridiculous scenes, you will laugh at how daft this movie is. David in Edinburgh
Show More All

User Opinions

Negenius5185, Fireman58444525, djhemetca735, Jebus342, rrobson218, mojoss161, ninicraftone120, gevity42996, MetalDoug61, jjkline9 ... And 167 more
cook192001407, Oppressor125
Report a bug Open chat