Red Dawn (2012) DVD RIP Godisgood FLV

seeders: 0
leechers: 0
updated:
Added by DOCMURDER8216.79K in Movies
Torrent verified. Downloaded 0 times.

Red Dawn (2012) DVD RIP Godisgood FLV (Size: 340.44 MB)
  Red Dawn (2012) DVD RIP Godisgood FLV.flv 335.65 MB
  sample.mp4 3.02 MB
  423de9f6af528c069923a82abb7b8e72.png 522.48 KB
  vlcsnap-00778.png 307.29 KB
  vlcsnap-00762.png 276.95 KB
  vlcsnap-00779.png 260.87 KB
  vlcsnap-00764.png 203.25 KB
  vlcsnap-00772.png 151.61 KB
  vlcsnap-00759.png 86.37 KB

Description

http://imageshack.us/a/img59.../423de9f6af528c069923a82.png

http://imageshack.us/a/img703/7070/z51213de125cf4.gif


Red Dawn (2012)
93 min - Action - 21 November 2012 (USA)
5.5 Your rating: -/10 Ratings: 5.5/10 from 10,142 users Metascore: 32/100
Reviews: 101 user | 129 critic | 30 from Metacritic.com
A group of teenagers look to save their town from an invasion of North Korean soldiers.

Director: Dan Bradley
Writers: Carl Ellsworth (screenplay), Jeremy Passmore (screenplay), 3 more credits »
Stars: Chris Hemsworth, Isabel Lucas, Josh Hutcherson
Red Dawn (2012) DVD RIP Godisgood FLV.flv
http://imageshack.us/a/img6/8018/z51213e0f8d45e.gif
: Flash Video
File size : 336 MiB
Duration : 1h 33mn
Overall bit rate : 503 Kbps
http://imageshack.us/a/img22/9884/z51213e2086cfd.gif
Format : AVC
Format/Info : Advanced Video Codec
Format profile : High@L2.1
Format settings, CABAC : Yes
Format settings, ReFrames : 4 frames
Codec ID : 7
Duration : 1h 33mn
Bit rate : 400 Kbps
Width : 640 pixels
Height : 272 pixels
Display aspect ratio : 2.35:1
Frame rate mode : Constant
Frame rate : 23.976 fps
Color space : YUV
Chroma subsampling : 4:2:0
Bit depth : 8 bits
Scan type : Progressive
Bits/(Pixel*Frame) : 0.096
Stream size : 267 MiB (80%)
http://imageshack.us/a/img163/2193/z51213e2d11c59.gif
Format : AAC
Format/Info : Advanced Audio Codec
Format profile : LC
Codec ID : 10
Duration : 1h 33mn
Bit rate : 94.4 Kbps
Channel(s) : 2 channels
Channel positions : Front: L R
Sampling rate : 44.1 KHz
Compression mode : Lossy
Delay relative to video : 19ms
Stream size : 67.1 MiB (20%)
http://imageshack.us/a/img24/9896/z51213dfba68a0.gif
http://imageshack.us/a/img839/6203/vlcsnap00759.png
http://imageshack.us/a/img849/5912/vlcsnap00762.png
http://imageshack.us/a/img145/7581/vlcsnap00764.png
http://imageshack.us/a/img687/5333/vlcsnap00772.png
http://imageshack.us/a/img685/6150/vlcsnap00778.png
http://imageshack.us/a/img341/5018/vlcsnap00779.png
http://imageshack.us/a/img856/116/z51213d9965c37.gif
http://imageshack.us/a/img255/5868/1498800mc495lmvl6.gif

Related Torrents

torrent name size files age seed leech

Sharing Widget


Download torrent
340.44 MB
seeders:0
leechers:0
Red Dawn (2012) DVD RIP Godisgood FLV



To share this torrent use the code below and insert it into comments, status messages, forum posts or your signature.

Torrent: Red Dawn (2012) DVD RIP Godisgood FLV

Trackers

tracker name
udp://tracker.istole.it:80/announce
http://genesis.1337x.org:1337/announce
udp://tracker.openbittorrent.com:80/announce
http://pow7.com/announce
udp://tracker.publicbt.com:80/announce
udp://open.demonii.com:1337/announce
udp://tracker.1337x.org:80/announce
http://www.h33t.com:3310/announce
http://fr33dom.h33t.com:3310/announce
udp://fr33domtracker.h33t.com:3310/announce
µTorrent compatible trackers list

Locations

name
KickassTorrents
Torrent hash: 9C611F7BF70BE835E60F43969CAE1D9BF96C9896

Uploader Comments

0
DOCMURDER8216.79K
Uploader
WELCUM BRO.....

All Comments

audio
9/10
video
9/10
please, leave only comments related to that torrent
Sign In

audio: 10video: 10
thanks
WELCUM BRO.....
audio: 8video: 8
good print thanks...

User Opinions

Report a bug