Rain Man 1988 720p BRRip AC3 x264-KaRa

seeders: 0
leechers: 1
updated:
Added by karakurachow1550 in Movies > Highres Movies
Downloaded 10 times.

  • add Rain Man to bookmarks
  • Release date: 14 December 1988
  • Writers: Barry Morrow (story), Ronald Bass (screenplay), Barry Morrow (screenplay)
  • Director: Barry Levinson
  • Language: English
  • Subtitles: English
Summary:

Selfish yuppie Charlie Babbitt's father left a fortune to his savant brother Raymond and a pittance to Charlie; they travel cross-country.

Written by 5fingerdis65.67K
Available in versions: 1080p720pBDRipHDRiPDVDRip
Rain Man 1988 720p BRRip AC3 x264-KaRa (Size: 4.07 GB)
  Rain Man 1988 720p BRRip AC3 x264-KaRa.mkv 4.03 GB
  KaRa Rain Man Movie info.nfo 4.13 KB
  Subs, Sample, Cover

Description

image

Encoded/Released By..: karakurachow (KaRa)
Release Name.........: Rain Man 1988 720p BluRay AC3 x264-KaRa
Genre................: Drama
Subtitle(s)..........: English
IMDB.................: http://www.imdb.com/title/tt0095953/
Plot / Synopsis......: Selfish yuppie Charlie Babbitt's father left a fortune to his savant brother Raymond and a pittance to Charlie; they travel cross-country.
Source...............: Rain Man 1988 Blu-ray CEE 1080p AVC DTS-HD MA 5 1-CHDBits (Thanks!)

Note: Make sure is a Real KaRa Release at ExtraTorrent.com

General
Complete name : Rain Man 1988 720p BluRay AC3 x264-KaRa
Format : Matroska
Format version : Version 2
File size : 4.03 GiB
Duration : 2h 13mn
Overall bit rate : 4 310 Kbps
Encoded date : UTC 2012-02-18 15:52:04
Writing application : mkvmerge v5.2.1 ('A Far Off Place') built on Jan 2 2012 23:21:10
Writing library : libebml v1.2.3 + libmatroska v1.3.0


Video
ID : 1
Format : AVC
Format/Info : Advanced Video Codec
Format profile : High@L3.1
Format settings, CABAC : Yes
Format settings, ReFrames : 4 frames
Codec ID : V_MPEG4/ISO/AVC
Duration : 2h 13mn
Bit rate : 3 862 Kbps
Width : 1 280 pixels
Height : 688 pixels
Display aspect ratio : 1.860
Frame rate : 23.976 fps
Color space : YUV
Chroma subsampling : 4:2:0
Bit depth : 8 bits
Scan type : Progressive
Bits/(Pixel*Frame) : 0.183
Stream size : 3.53 GiB (88%)

Audio
ID : 2
Format : AC-3
Format/Info : Audio Coding 3
Mode extension : CM (complete main)
Codec ID : A_AC3
Duration : 2h 13mn
Bit rate mode : Constant
Bit rate : 448 Kbps
Channel(s) : 6 channels
Channel positions : Front: L C R, Side: L R, LFE
Sampling rate : 48.0 KHz
Bit depth : 16 bits
Compression mode : Lossy
Stream size : 429 MiB (10%)

Screenshots :

http://img821.imageshack.us/img821/5513/snapshot20120219041657.png
http://img860.imageshack.us/img860/3885/snapshot20120219041743.png
http://img713.imageshack.us/img713/3143/snapshot20120219041917.png
http://img96.imageshack.us/img96/7084/snapshot20120219042119.png
http://img542.imageshack.us/img542/9193/thumbs20120219032858.png


Trailer
[embed=youtube]http://www.youtube.com/watch?v=KKC3W0awjm0[/embed]


Greets & Thanks To : HDLiTE,X,LKRG,Bubanee,Noir,CHD,FXG,3Li,AMIABLE,aAF,KingdomRG,UnKnOwN,SaM,HDMaNiAcS,ReleaseLoungeRG,IMAGINE,DDR,CiNEFiLE,blackjesus,TheFalcon007,NPW,CHD,CtrlHD,HDChina,
Feel-Free,HDSceneRG,greenbud1969,HiDt,MXMG,ExtraTorrentRG,SamuraiRG,FLAWL3S & To All Other Releasers Past & Present...


Quality Release Brought To You By KaRa 2012©

Related Torrents

torrent name size files age seed leech

Sharing Widget


Download torrent
4.07 GB
seeders:0
leechers:1
Rain Man 1988 720p BRRip AC3 x264-KaRa



To share this torrent use the code below and insert it into comments, status messages, forum posts or your signature.

Torrent: Rain Man 1988 720p BRRip AC3 x264-KaRa

Trackers

tracker name
http://pow7.com/announce
udp://tracker.openbittorrent.com:80/announce
udp://tracker.istole.it:80/announce
udp://tracker.publicbt.com:80/announce
udp://open.demonii.com:1337/announce
http://tracker2.istole.it:6969/announce
udp://tracker.seedceo.com:2710/announce
udp://fr33domtracker.h33t.com:3310/announce
http://9.rarbg.com:2710/announce
http://tracker.novalayer.org:6969/announce
µTorrent compatible trackers list

Locations

name
KickassTorrents
ExtraTorrent
Torrent hash: CD16DAC7E3705F54C33DDF746DEF1CA5801E3B5B

All Comments

audio
9/10
video
9/10
please, leave only comments related to that torrent
Sign In

audio: 10video: 10
Excellent movie, a classic. A10 V10
audio: 9video: 9
a9 v9
audio: 9video: 9
great classic. this is only one year younger than i am. nice quality upload.
audio: 10video: 10
GREAT ALL AROUND!!! Love the movie, thanks!!!

User Opinions

FantasticKat2221, CaspersSVT1953, dr0z1011654, ihab98761186, pesi73799, Mikey1238430, josenimo196, dorys182, aly96194, sterncrazy4 ... And 12 more
punisher234303
Report a bug