Pretty Bird 2008 DVDRip GoGo(Extra Torrent)

seeders: 0
leechers: 0
Added on Jul 1, 2010 by fasamoo17.76K in Movies
Torrent verified. Downloaded 0 times.

Summary:
A comic tale of three would-be entrepreneurs who set out to invent a rocket belt. The clash of their mismatched personalities soon dissolves the business into a morass of recriminations and retaliations, kidnapping, and murder in this parable of American dreams and delusions.
Written by Xenomorph101.54K
report summary
Available in versions: HDRiP
Pretty Bird 2008 DVDRip GoGo(Extra Torrent) (Size: 650 MB)
  gogo.txt 16.27 KB
  Pretty Bird 2008 DVDRip GoGo(Extra Torrent).avi 649.98 MB
  Torrent downloaded from extratorrent.com.txt 71 bytes

Description


image



image



image



A comic tale of three would-be entrepreneurs who set out to invent a

rocket belt. The clash of their mismatched personalities soon dissolves

the business into a morass of recriminations and retaliations,

kidnapping, and murder in this parable of American dreams and

delusions.



image



image

image

image

image

image

image





image



http://www.youtube.com/watch?v=3_FvxWAWqA4



image

 

General

Complete name                    : Pretty Bird 2008 DVDRip GoGo(Extra Torrent)\Pretty Bird 2008 DVDRip GoGo(Extra Torrent).avi

Imdb                             : http://www.imdb.com/title/tt1058743/

Format                           : AVI

Format/Info                      : Audio Video Interleave

File size                        : 650 MiB

Duration                         : 1h 36mn

Overall bit rate                 : 946 Kbps

Writing application              : VirtualDubMod 1.5.4.1 (build 2178/release)

Writing library                  : VirtualDubMod build 2178/release

VideoID                               : 0

Format                           : MPEG-4 Visual

Format profile                   : Advanced Simple@L5

Format settings, BVOP            : Yes

Format settings, QPel            : No

Format settings, GMC             : No warppoints

Format settings, Matrix          : Custom

Codec ID                         : XVID

Codec ID/Hint                    : XviD

Duration                         : 1h 36mn

Bit rate                         : 820 Kbps

Width                            : 720 pixels

Height                           : 384 pixels

Display aspect ratio             : 1.875

Frame rate                       : 25.000 fps

Color space                      : YUV

Chroma subsampling               : 4:2:0

Bit depth                        : 8 bits

Scan type                        : Progressive

Bits/(Pixel*Frame)               : 0.119

Stream size                      : 564 MiB (87%)

Writing library                  : XviD 1.2.1 (UTC 2008-12-04)



Audio

ID                               : 1

Format                           : MPEG Audio

Format version                   : Version 1

Format profile                   : Layer 3

Mode                             : Joint stereo

Mode extension                   : MS Stereo

Codec ID                         : 55

Codec ID/Hint                    : MP3

Duration                         : 1h 36mn

Bit rate mode                    : Variable

Bit rate                         : 112 Kbps

Nominal bit rate                 : 128 Kbps

Channel(s)                       : 2 channels

Sampling rate                    : 48.0 KHz

Stream size                      : 77.2 MiB (12%)

Alignment                        : Aligned on interleaves

Interleave, duration             : 24 ms (0.60 video frame)

Interleave, preload duration     : 164 ms

Writing library                  : LAME3.98r

Encoding settings                : -m j -V 4 -q 2 -lowpass 17 --abr 128

Language                         : English

Subtitles                        : None

Genre                            : Comedy

 

imageimage



image



image



A comic tale of three would-be entrepreneurs who set out to invent a

rocket belt. The clash of their mismatched personalities soon dissolves

the business into a morass of recriminations and retaliations,

kidnapping, and murder in this parable of American dreams and

delusions.



image



image

image

image

image

image

image





image



http://www.youtube.com/watch?v=3_FvxWAWqA4



image

 

General

Complete name                    : Pretty Bird 2008 DVDRip GoGo(Extra Torrent)\Pretty Bird 2008 DVDRip GoGo(Extra Torrent).avi

Imdb                             : http://www.imdb.com/title/tt1058743/

Format                           : AVI

Format/Info                      : Audio Video Interleave

File size                        : 650 MiB

Duration                         : 1h 36mn

Overall bit rate                 : 946 Kbps

Writing application              : VirtualDubMod 1.5.4.1 (build 2178/release)

Writing library                  : VirtualDubMod build 2178/release

VideoID                               : 0

Format                           : MPEG-4 Visual

Format profile                   : Advanced Simple@L5

Format settings, BVOP            : Yes

Format settings, QPel            : No

Format settings, GMC             : No warppoints

Format settings, Matrix          : Custom

Codec ID                         : XVID

Codec ID/Hint                    : XviD

Duration                         : 1h 36mn

Bit rate                         : 820 Kbps

Width                            : 720 pixels

Height                           : 384 pixels

Display aspect ratio             : 1.875

Frame rate                       : 25.000 fps

Color space                      : YUV

Chroma subsampling               : 4:2:0

Bit depth                        : 8 bits

Scan type                        : Progressive

Bits/(Pixel*Frame)               : 0.119

Stream size                      : 564 MiB (87%)

Writing library                  : XviD 1.2.1 (UTC 2008-12-04)



Audio

ID                               : 1

Format                           : MPEG Audio

Format version                   : Version 1

Format profile              &

Sharing Widget


Download torrent
650 MB
seeders:0
leechers:0
Pretty Bird 2008 DVDRip GoGo(Extra Torrent)

Trackers

tracker name Status checked seeders leechers downloads
udp://tracker.publicbt.com:80/announce
outdated 22 Mar 2012 - - -
http://tracker.openbittorrent.com/announce
outdated 22 Mar 2012 - - -
udp://tracker.openbittorrent.com:80/announce
outdated 22 Mar 2012 - - -
http://exodus.1337x.org/announce
outdated 22 Mar 2012 - - -
http://genesis.1337x.org:1337/announce
outdated 22 Mar 2012 - - -
http://tracker.publicbt.com/announce
deleted 11 Mar 2013 - - -
µTorrent compatible trackers list

Locations

name
KickassTorrents
ExtraTorrent
ThePirateBay
1337x
Limetorrents
Torrent hash: e92cb6f396331ef6d660225166b3b9b1a989f719

All Comments

audio
0/10
video
0/10
please, leave only comments related to that torrent
or sign-in

User Opinions

Report a bug