Prem Geet (1981)(DVDRip, mkv)(gnv64)

seeders: 2
leechers: 0
updated:
Added by gnv6463.63K in Movies
Torrent verified. Downloaded 10 times.

Summary:

Akash and Shikha make an impressive creative team as they work together in a dance troupe, and a romantic relationship soon flourishes between them. But when it transpires that Shikha only has a few months to live, and she's pregnant, some dramatic scenes unravel as the movie travels nears its climax

Written by FroZenGhoSt10.02K
Available in versions: DVDRip
Prem Geet (1981)(DVDRip, mkv)(gnv64) (Size: 848.64 MB)
  Cover.jpg 640.8 KB
  dvd.jpg 501.32 KB
  Prem Geet (1981)(DVDRip, mkv)(gnv64).mkv 847.53 MB
  Prem Geet (1981).txt 1.93 KB
  Torrent downloaded from AhaShare.com.txt 59 bytes
  Torrent downloaded from Demonoid.me.txt 46 bytes

Description

image

Prem Geet (1981)
Prem Geet
Release Date: 25 September 1981 (India)
Director: Sudesh Issar
Writer: Shashi Bhushan (story & screenplay)
Stars: Raj Babbar, Anita Raj and Rajni Sharma
Music: Jagjit Singh

Storyline
Akash and Shikha make an impressive creative team as they work together in a dance troupe, and a romantic relationship soon flourishes between them. But when it transpires that Shikha only has a few months to live, and she's pregnant, some dramatic scenes unravel as the movie travels nears its climax.
Raj Babbar is a poet & good singer, with whom Anita Raj falls in love. However, Anita is diagnosed to have Brain Cancer; nonetheless Raj decides to marry Anita with the knowledge of his Dad.

Review
Premgeet is a very romantic movie.Anita Raj steals the show.The end of the movie is very appreciable. The songs are unforgettable one.Anitha raj has played a best role as a cancer patient.Showkar Janaki has played a little role to her best.Anita Raj looks very beautiful.Raj Babbar had played a different role in this movie.The climax is a very practical one for this movie.It is one of the best romantic movie made in the 80's.The character played by Anita Raj is a landmark for the Indian Cinema.Real and true lovers must watch this movie.Don't miss a good romantic movie which is remembered forever.

Video :
Format : AVC
Format/Info : Advanced Video Codec
Duration : 2h 9mn
Bit rate : 801 Kbps
Width : 720 pixels
Height : 480 pixels
Display aspect ratio : 4:3
Frame rate : 23.976 fps
Standard : NTSC
Resolution : 8 bits
Colorimetry : 4:2:0
Scan type : Progressive
Bits/(Pixel*Frame) : 0.097
Stream size : 742 MiB (88%)

Audio :
Format : AC-3
Format/Info : Audio Coding 3
Duration : 2h 9mn
Bit rate mode : Constant
Bit rate : 96.0 Kbps
Channel(s) : 2 channels
Channel positions : Front: L R
Sampling rate : 48.0 KHz
Resolution : 16 bits
Stream size : 88.9 MiB (10%)

Related Torrents

torrent name size files age seed leech

Sharing Widget


Download torrent
848.64 MB
seeders:2
leechers:0
Prem Geet (1981)(DVDRip, mkv)(gnv64)



To share this torrent use the code below and insert it into comments, status messages, forum posts or your signature.

Torrent: Prem Geet (1981)(DVDRip, mkv)(gnv64)

Trackers

tracker name
udp://tracker.openbittorrent.com:80/announce
udp://tracker.publicbt.com:80/announce
udp://tracker.istole.it:80/announce
http://tracker.ex.ua/announce
http://exodus.1337x.org/announce
udp://tracker.torrentbox.com:2710/announce
udp://fr33domtracker.h33t.com:3310/announce
http://fr33dom.h33t.com:3310/announce
http://9.rarbg.com:2710/announce
http://tracker.bitreactor.to:2710/announce
ĀµTorrent compatible trackers list

Locations

name
KickassTorrents
1337x
KickassTorrents
Torrent hash: 491afe4fb0b4ad7a63f7bf30fbeea7c9a713ee49

All Comments

audio
9/10
video
7/10
please, leave only comments related to that torrent
Sign In

audio: 9video: 9
dear uploader, please seed ...!! plzzzz seeeedd ...!! :( :(

User Opinions

zzmen1822, HARRI12947, Ajayu390, MehtabMk100, zumer89
Report a bug Open chat