Piranha 3DD 2012 HDRIP XVID DQ1

seeders: 1
leechers: 0
updated:
Added by Hackullus42.63K in Movies
Torrent verified. Downloaded 300 times.

Piranha 3DD 2012 HDRIP XVID DQ1 (Size: 893.74 MB)
  Piranha.3DD.2012.HDRIP.XVID-DQ1.avi 893.74 MB
  Piranha.3DD.2012.HDRIP.XVID-DQ1.nfo 2.9 KB
  Torrent downloaded from AhaShare.com.txt 59 bytes
  Torrent downloaded from Demonoid.me.txt 46 bytes
  Torrent downloaded from extratorrent.com.txt 40 bytes
  Torrent downloaded from Rarbg.com.txt 33 bytes
  torrent downloaded from H33T.com.txt 32 bytes

Description

http://imgcrave.com/u/bcFkm.jpg

Piranha.3DD.2012.HDRIP.XVID-DQ1

http://www.imdb.com/title/tt1714203/

Plot:
After the events at Lake Victoria, the pre-historic school of blood-thirsty piranhas make their way into a newly opened waterpark.


Video
ID : 0
Format : xvid
Codec ID : xvid
Duration : 1h 22mn
Bit rate : 1 434 Kbps
Width : 720 pixels
Height : 380 pixels
Display aspect ratio : 1.895
Frame rate : 25.000 fps
Bits/(Pixel*Frame) : 0.210
Stream size : 848 MiB (95%)

Audio
ID : 1
Format : MPEG Audio
Format version : Version 2
Format profile : Layer 3
Mode : Joint stereo
Mode extension : MS Stereo
Codec ID : 55
Codec ID/Hint : MP3
Duration : 1h 22mn
Bit rate mode : Constant
Bit rate : 64.0 Kbps
Channel(s) : 2 channels
Sampling rate : 22.05 KHz
Compression mode : Lossy
Stream size : 37.9 MiB (4%)
Alignment : Aligned on interleaves
Interleave, duration : 26 ms (0.65 video frame)
Interleave, preload duration : 522 ms
Writing library : LAME3.98.4

http://imgcrave.com/u/Wx6Ps.png
http://imgcrave.com/u/Zwz16.png

Related Torrents

torrent name size files age seed leech

Sharing Widget


Download torrent
893.74 MB
seeders:1
leechers:0
Piranha 3DD 2012 HDRIP XVID DQ1



To share this torrent use the code below and insert it into comments, status messages, forum posts or your signature.

Torrent: Piranha 3DD 2012 HDRIP XVID DQ1

Trackers

tracker name
udp://tracker.istole.it:80/announce
udp://tracker.publicbt.com:80/announce
udp://tracker.1337x.org:80/announce
udp://tracker.openbittorrent.com:80/announce
udp://glotorrents.pw:6969/announce
udp://tracker.coppersurfer.tk:6969/announce
udp://fr33domtracker.h33t.com:3310/announce
µTorrent compatible trackers list

Locations

name
KickassTorrents
Torrent hash: DE58ED268E512ACB921AFABF1EBA3EF76ED13799

Top Comments

29
anonymous
does it come with 3dd glasses ?
11
anonymous
no its not it is just ur connection
9
anonymous
dude that is the third comment for this upload, if u want to increase ur rep do it fairly
6
borsky441
This is what movies have degraded to?

All Comments

audio
8/10
video
8/10
please, leave only comments related to that torrent
Sign In

audio: 8video: 8
Thank you for the torrent Hackullus.
audio: 8video: 8
very bad movie
audio: 7video: 7
worst movie eva
audio: 9video: 9
Great upload thank you, Movie it self laughable still entertaining
Best in quality
Worst movie
is there any sex scene in this movie
Good quality, but the movie it's self.. not as good:p. I think the director is little *nuts* in the head with all the boobs.shocked
Show More All

User Opinions

alotofthings9778, Naskal6519, Negenius5182, TeGiiGii4601, n2cr8zysht4544, supermate1381, toxictoadz1243, untarock1175, chatty461000, ritvik172 ... And 1091 more
magriyou1645, Digter1178, docanas35402, msdogru332, sashank!!325, guaibash253, raja_mohsin_242, sedhkhan232, guneshwor_okram116, kutalines52 ... And 98 more
Report a bug