Advertising (remove)

Phans Gaye Re Obama-2010-DVDSCR-Rip-XviD-Esubs-[MysT]-RdY

seeders: 0
leechers: 0
updated:
Added by myst3rious55 in XXX > Video
Downloaded 0 times.

Phans Gaye Re Obama-2010-DVDSCR-Rip-XviD-Esubs-[MysT]-RdY (Size: 696.43 MB)
  Phans Gaye Re Obama-2010-DVDSCR-Rip-XviD-Esubs-[MysT]-RdY.avi 696.37 MB
  Phans Gaye Re Obama-2010-DVDSCR-Rip-XviD-Esubs-[MysT]-RdY.srt 67.21 KB
Advertising (remove)

Description

image



image



Ripper Myself



Credits To Team IcTv For Providing the Source





Format                           : AVI<br />
Format/Info                      : Audio Video Interleave<br />
Format profile                   : OpenDML<br />
File size                        : 696 MiB<br />
Duration                         : 1h 55mn<br />
Overall bit rate                 : 845 Kbps<br />
Writing application              : AVI-Mux GUI 1.17.8.3, Feb 16 201019:42:50<br />
<br />
Video<br />
ID                               : 0<br />
Format                           : MPEG-4 Visual<br />
Format profile                   : Advanced Simple@L5<br />
Format settings, BVOP            : Yes<br />
Format settings, QPel            : Yes<br />
Format settings, GMC             : No warppoints<br />
Format settings, Matrix          : Custom<br />
Codec ID                         : XVID<br />
Codec ID/Hint                    : XviD<br />
Duration                         : 1h 55mn<br />
Bit rate                         : 778 Kbps<br />
Width                            : 640 pixels<br />
Height                           : 272 pixels<br />
Display aspect ratio             : 2.35:1<br />
Frame rate                       : 23.976 fps<br />
Color space                      : YUV<br />
Chroma subsampling               : 4:2:0<br />
Bit depth                        : 8 bits<br />
Scan type                        : Progressive<br />
Bits/(Pixel*Frame)               : 0.186<br />
Stream size                      : 641 MiB (92%)<br />
Writing library                  : XviD 1.2.1 (UTC 2008-12-04)<br />
<br />
Audio<br />
ID                               : 1<br />
Format                           : MPEG Audio<br />
Format version                   : Version 2<br />
Format profile                   : Layer 3<br />
Mode                             : Joint stereo<br />
Mode extension                   : MS Stereo<br />
Codec ID                         : 55<br />
Codec ID/Hint                    : MP3<br />
Duration                         : 1h 55mn<br />
Bit rate mode                    : Constant<br />
Bit rate                         : 64.0 Kbps<br />
Channel(s)                       : 2 channels<br />
Sampling rate                    : 24.0 KHz<br />
Stream size                      : 52.7 MiB (8%)<br />
Alignment                        : Aligned on interleaves<br />
Interleave, duration             : 910 ms (21.82 video frames)<br />
Interleave, preload duration     : 216 ms<br />
Title                            : VTS_01_1 T80 2_0ch 192Kbps DELAY 0ms<br />
Writing library                  : LAME3.98r<br />
Encoding settings                : -m j -V 4 -q 2 -lowpass 11 -b 64




image



image



image



image



image



image



image





image





[FONT=Georgia]-= E[COLOR=Blue]xtreme Seeding =- [/FONT][/COLOR]









Sharing Widget


Download torrent
696.43 MB
seeders:0
leechers:0
Phans Gaye Re Obama-2010-DVDSCR-Rip-XviD-Esubs-[MysT]-RdY



To share this torrent use the code below and insert it into comments, status messages, forum posts or your signature.

Torrent: Phans Gaye Re Obama-2010-DVDSCR-Rip-XviD-Esubs-[MysT]-RdY

Trackers

tracker name
http://tracker.desibbrg.com:2710/0000993db34d8fb23eea90764be67578/announce
http://tracker.openbittorrent.com/announce
udp://tracker.publicbt.com:80/announce
udp://tracker.openbittorrent.com:80/announce
http://tracker.publicbt.com/announce
µTorrent compatible trackers list

Locations

name
KickassTorrents
Fenopy
1337x
ExtraTorrent
Torrent hash: ff48dd56bed99d6d47122ab34391449957d1764a

All Comments

audio
0/10
video
0/10
please, leave only comments related to that torrent
Sign In

nt dat gud quality....but muvi is supperrbbb
thx...........

User Opinions

yprockz1173, RAJSAM961, sumanchow277, earthqaz18
Report a bug Open chat