Percy Jackson And the Olympians The Lightning Thief 2010 Eng LU

seeders: 0
leechers: 0
updated:
Added in Movies
Torrent verified. Downloaded 10 times.

Summary:

A teenager discovers he's the descendant of a Greek god and sets out on an adventure to settle an on-going battle between the gods.

Written by 5fingerdis65.67K
Percy Jackson And the Olympians The Lightning Thief 2010 Eng LU (Size: 701.75 MB)
  Percy.Jackson.And.the.Olympians.The.Lightning.Thief.2010.Eng.LU_4.avi 701.75 MB
  Torrent downloaded from Demonoid.com.txt 47 bytes

Description

General
Complete name : Percy.Jackson.And.the.Olympians.The.Lightning.Thief.2010.Eng.LU.avi
Format : AVI
Format/Info : Audio Video Interleave
File size : 702 MiB
Duration : 1h 51mn
Overall bit rate : 883 Kbps
Movie name : Percy Jackson & the Olympians: The Lightning Thief (2010)
Director : ELEKTRI4KA
Writing application : VirtualDubMod 1.5.10.2 (build 2540/release)
Writing library : VirtualDub build 32706/release
Copyright : http://uniongang.ru/

Video
ID : 0
Format : MPEG-4 Visual
Format profile : Advanced Simple@L5
Format settings, BVOP : Yes
Format settings, QPel : No
Format settings, GMC : No warppoints
Format settings, Matrix : Default (H.263)
Codec ID : XVID
Codec ID/Hint : XviD
Duration : 1h 51mn
Bit rate : 745 Kbps
Width : 640 pixels
Height : 272 pixels
Display aspect ratio : 2.35:1
Frame rate : 25.000 fps
Resolution : 8 bits
Colorimetry : 4:2:0
Scan type : Progressive
Bits/(Pixel*Frame) : 0.171
Stream size : 592 MiB (84%)
Writing library : XviD 1.2.1 (UTC 2008-12-04)

Audio
ID : 1
Format : MPEG Audio
Format version : Version 1
Format profile : Layer 3
Codec ID : 55
Codec ID/Hint : MP3
Duration : 1h 51mn
Bit rate mode : Constant
Bit rate : 128 Kbps
Channel(s) : 2 channels
Sampling rate : 44.1 KHz
Stream size : 102 MiB (15%)
Alignment : Split accross interleaves
Interleave, duration : 40 ms (1.00 video frame)
Interleave, preload duration : 500 ms
Well couldnt wait on english audio for this,wanted to see it lol
So i added mine its very clear as usual...be good enough untill
a line audio comes out..
Video is ELEKTRI4KA thanks guys.

Enjoy

Related Torrents

torrent name size files age seed leech

Sharing Widget


Download torrent
701.75 MB
seeders:0
leechers:0
Percy Jackson And the Olympians The Lightning Thief 2010 Eng LU



To share this torrent use the code below and insert it into comments, status messages, forum posts or your signature.

Torrent: Percy Jackson And the Olympi... Lightning Thief 2010 Eng LU

Trackers

tracker name
udp://tracker.openbittorrent.com:80/announce
udp://tracker.publicbt.com:80/announce
http://tracker.openbittorrent.com/announce
http://tracker.publicbt.com/announce
ĀµTorrent compatible trackers list

Locations

name
ThePirateBay
ExtraTorrent
Newtorrents
isoHunt
BTjunkie
SumoTorrent
SumoTorrent
SumoTorrent
SumoTorrent
Torrent hash: 595059563ec5418b6b4f2396724eb1cba720c141

All Comments

audio
4/10
video
4/10
please, leave only comments related to that torrent
Sign In

It is like I have watched 1700 movie!
good quality (cough) not (cough)
audio: 1video: 1
worst video ever! do not download!
audio: 1video: 1
bad quality
audio: 1video: 1
too bad quality
Terrible video and sound!
audio: 6video: 4
poor video quality
Show More All

User Opinions

little D10.19K, sn33k896, zackmaxpower238, sundowner27uk127, Empiere125, lhnzh1287, snkiz47, remember_my200630, chapo8629, ``JD``1 ... And 60 more
anne_broe2190, dnwilmth931, Neelyo436, reddawg43421, ENERGY78253, Reo327251, Rottie-mom168, denzil101128, sale_9565, Coolchick45 ... And 5 more
Report a bug