Percy Jackson and the Olympians (2010) R5 DVDRip XviD-MAXSPEED

seeders: 1
leechers: 0
updated:
Added by Solek699516 in Movies
Torrent verified by Mansory467, 4 years and 11 months ago. Downloaded 48 times.

Summary:

A teenager discovers he's the descendant of a Greek god and sets out on an adventure to settle an on-going battle between the gods.

Written by 5fingerdis65.67K
Percy Jackson and the Olympians (2010) R5 DVDRip XviD-MAXSPEED (Size: 1.1 GB)
  Percy Jackson and the Olympians (2010) R5 DVDRip XviD-MAXSPEED www.torentz.3xforum.ro.avi 1.1 GB
  screencaps.jpg 249.28 KB
  Percy Jackson and the Olympians (2010) R5 DVDRip XviD-MAXSPEED.nfo 2.64 KB
  Torrent downloaded from Demonoid.com.txt 47 bytes
  Torrent verified and recommended by vertor.com.txt 46 bytes
  Torrent downloaded from Rarbg.com.txt 33 bytes
  tracked_by_h33t_com.txt 23 bytes

Description

More info: rarbg.com/r.php







Format : AVI

Format/Info : Audio Video Interleave

File size : 1.10 GiB

Duration : 1h 51mn

Overall bit rate : 1 419 Kbps

Writing application : VirtualDubMod 1.5.10.2 (build 2542/release)

Writing library : VirtualDubMod build 2542/release

Original source form : MAX TORRENTZ

Copyright : SIGISMUNT


Video

ID : 0

Format : MPEG-4 Visual

Format profile : AdvancedSimple[@]L5

Format settings, BVOP : Yes

Format settings, QPel : No

Format settings, GMC : No warppoints

Format settings, Matrix : Default (H.263)

Muxing mode : Packed bitstream

Codec ID : XVID

Codec ID/Hint : XviD

Duration : 1h 51mn

Bit rate : 1 285 Kbps

Width : 720 pixels

Height : 304 pixels

Display aspect ratio : 2.35:1

Frame rate : 25.000 fps

Resolution : 24 bits

Colorimetry : 4:2:0

Scan type : Progressive

Bits/(Pixel*Frame) : 0.235

Stream size : 1 023 MiB (91%)

Writing library : XviD 1.2.1 (UTC 2008-12-04)


Audio

ID : 1

Format : MPEG Audio

Format version : Version 1

Format profile : Layer 3

Codec ID : 55

Codec ID/Hint : MP3

Duration : 1h 47mn

Bit rate mode : Constant

Bit rate : 128 Kbps

Channel(s) : 2 channels

Sampling rate : 44.1 KHz

Resolution : 16 bits

Stream size : 98.8 MiB (9%)

Alignment : Split accross interleaves

Interleave, duration : 41 ms (1.03 video frame)

Interleave, preload duration : 500 ms


ENCODE NOTE: Original DVD Copy VideoSource + R5 IMAGiNE clear audiosource resynced (+150)

Related Torrents

torrent name size files age seed leech

Sharing Widget


Download torrent
1.1 GB
seeders:1
leechers:0
Percy Jackson and the Olympians (2010) R5 DVDRip XviD-MAXSPEED



To share this torrent use the code below and insert it into comments, status messages, forum posts or your signature.

Torrent: Percy Jackson and the Olympi...010) R5 DVDRip XviD-MAXSPEED

Trackers

tracker name
http://tracker.ex.ua/announce
udp://tracker.openbittorrent.com:80/announce
http://pow7.com/announce
udp://tracker.publicbt.com:80/announce
http://10.rarbg.com/announce
http://tracker.irc.su/announce
http://genesis.1337x.org:1337/announce
http://11.rarbg.com/announce
http://tracker.openbittorrent.com/announce
http://tracker.xpear.de:6969/announce
http://nemesis.1337x.org/announce
http://tracker.torrentbay.to:6969/announce
http://tracker.ilibr.org:6969/announce
udp://tracker.ilibr.org:6969/announce
http://fr33dom.h33t.com:3310/announce
http://tracker.publicbt.com/announce
http://9.rarbg.com:2710/announce
http://www.zen7.ph/track_1/announce.php
http://tracker.bitreactor.to:2710/announce
http://www.zen7.ph/track/announce.php
µTorrent compatible trackers list

Locations

name
KickassTorrents
ThePirateBay
Torrentzap
ExtraTorrent
1337x
KickassTorrents
BTjunkie
BTjunkie
SumoTorrent
SumoTorrent
BTjunkie
Limetorrents
Limetorrents
Torrent hash: c39d9e108b50a47b51a1a8cc90a9b074730bf965

Uploader Comments

0
anonymous
is this real? a/v?
2
Solek699516
Uploader
audio: 8video: 8
V??? Loook on this damn screens.
A:8+
-1
anonymous
Solek, are you a she-male???
-1
Solek699516
Uploader
Im the guy lol. Babe in avatar and everyone think that iam girl...OMG.
Holy shit.
0
anonymous
i wanted to know the outcome of the quality of this film but now i'm interested in the outcome of is she/he or is she/he?????? this film will be what it is, we will wait on baited breath for the result of if is she or is she/he lol
0
Solek699516
Uploader
My name is Chris so now you know =)
1
anonymous
Leave alone uploader...He just uploading. 90% of guys see in avatar girl with nice boobs and think its "she". WHO POST OWN PICTURES ON ILLEGAL STIES ?? Nobody so think people, think. Apperciate his upload, no who is he. When all users change their avatars with girls you see them as girls ?? and tell them "i wanna f*ck you" and they will laugh from you !!! He can post everything in his avatar. He is very popular in last time ya? so enjoy torrents not personality of uploader. He is not old, fat, no lifer. Spending much time on laptop but is good guy. ~~Old friend
0
Solek699516
Uploader
Finnaly someone agree with me :)
-1
anonymous
u n solek.... both r fuckin gay... go fuck ur own father u kickass fatherfucker..
3
Solek699516
Uploader
You didnt fucked thats your problem ;p

Top Comments

4
STOMPCATS191
audio: 7video: 8
good to go. easily watchable.
4
drako10533
good copy
2
anonymous
Who let the kiddies post?

All Comments

audio
8/10
video
8/10
please, leave only comments related to that torrent
Sign In

go's to show that many who like to drop the 'F' bomb,either don't get layed,or they prolly have small penis issues people put up these torrents to help the best they can,wich i think is awesome,even if a/v is poor don't like it,go pay for it
audio: 9video: 9
thanks
audio: 5video: 6
Lower video quality than file size indicates; Bad audio quality.
audio: 3video: 7
Lower video quality than file size would normally indicate; truly abysmal audio quality.

audio: 8video: 8
try it
Show More All

User Opinions

pardeep33370.56K, BoWL53.66K, q8djent6371, mosthated24912654, DarthDefault506, wazs292, bunglefurd197, gonqbro102, daisychainsaw99, dewstrr4373 ... And 580 more
bobnjeff6559, bear123456198, stevemcqueen126, dimitris4489, CiGius85, hakoooom31, thebandit0076, miyukikym1, Sprint-Man1, Axer971 ... And 12 more
Report a bug