Pathirama Pathukkunga ~ 2012 ~ 1CD ~ Suara ~ Xvid ~ 700MB

seeders: 0
leechers: 0
updated: 1 week ago
Added on May 14, 2012 by thasneen2276 in Movies
Downloaded 0 times.

Pathirama Pathukkunga ~ 2012 ~ 1CD ~ Suara ~ Xvid ~ 700MB (Size: 701.56 MB)
  Pathirama Pathukkunga ~ 2012 ~ 1CD ~ Suara ~ Xvid ~ 700MB ~ Uyirvani.com.avi 701.56 MB

Description

image
image
image
image
image
image


General
Complete name : K:TAMILPathirama Pathukkunga ~ 2012 ~ 1CD ~ Suara ~ Xvid ~ 700MB ~ Uyirvani.comPathirama Pathukkunga ~ 2012 ~ 1CD ~ Suara ~ Xvid ~ 700MB ~ Uyirvani.com.avi
Format : AVI
Format/Info : Audio Video Interleave
File size : 702 MiB
Duration : 2h 16mn
Overall bit rate : 718 Kbps

Video
ID : 0
Format : MPEG-4 Visual
Format profile : Advanced Simple@L5
Format settings, BVOP : 2
Format settings, QPel : Yes
Format settings, GMC : No warppoints
Format settings, Matrix : Default (H.263)
Codec ID : XVID
Codec ID/Hint : XviD
Duration : 2h 16mn
Bit rate : 648 Kbps
Width : 608 pixels
Height : 272 pixels
Display aspect ratio : 2.25:1
Frame rate : 25.000 fps
Color space : YUV
Chroma subsampling : 4:2:0
Bit depth : 8 bits
Scan type : Progressive
Compression mode : Lossy
Bits/(Pixel*Frame) : 0.157
Stream size : 633 MiB (90%)
Writing library : XviD 1.2.1 (UTC 2008-12-04)

Audio
ID : 1
Format : MPEG Audio
Format version : Version 2
Format profile : Layer 3
Mode : Joint stereo
Mode extension : MS Stereo
Codec ID : 55
Codec ID/Hint : MP3
Duration : 2h 16mn
Bit rate mode : Constant
Bit rate : 64.0 Kbps
Channel(s) : 2 channels
Sampling rate : 24.0 KHz
Compression mode : Lossy
Stream size : 62.6 MiB (9%)
Alignment : Aligned on interleaves
Interleave, duration : 160 ms (4.00 video frames)
Interleave, preload duration : 216 ms
Title : VTS_02_1 T81 2_0ch 192Kbps DELAY 0ms
Writing library : LAME3.99r
Encoding settings : -m j -V 4 -q 2 -lowpass 11 -b 64

Related Torrents

torrent name size files age seed leech

Sharing Widget


Download torrent
701.56 MB
seeders:0
leechers:0
Pathirama Pathukkunga ~ 2012 ~ 1CD ~ Suara ~ Xvid ~ 700MB

Trackers

tracker name Status
udp://tracker.istole.it:80/announce
outdated
http://tracker.istole.it/announce
outdated
udp://tracker.publicbt.com:80/announce
outdated
http://tracker.torrentbay.to:6969/announce
outdated
http://announce.torrentsmd.com:6969/announce
blocked
udp://fr33domtracker.h33t.com:3310/announce
deleted
http://tracker.publicbt.com/announce
deleted
http://www.h33t.com:3310/announce
deleted
http://bt.eutorrents.com/announce.php
error
http://backuptrcker.marshyonline.net/announce
active
µTorrent compatible trackers list

Locations

name
KickassTorrents
Torrent hash: FC6551B65FB682B807840DAF36BB75495E88DEAF

All Comments

audio
0/10
video
0/10
please, leave only comments related to that torrent
or sign-in

Report a bug