Out of Africa (1985) awesome DVDrip

seeders: 0
leechers: 0
Added on Jul 8, 2008 in Movies
Torrent verified. Downloaded 0 times.

Summary:
In 20th-century colonial Kenya, a Danish baroness/plantation owner has a passionate love affair with a free-spirited big-game hunter.
Written by Anette14152.22K
report summary
Available in versions: 720pHDRiPDVDRip
Out of Africa (1985) awesome DVDrip (Size: 694.58 MB)
  Notes on subtitle files.txt 1.68 KB
  Out_Of_Africa.avi 693.68 MB
  Out_of_Africa_subtitles.rar 919.24 KB

Description



Out of Africa (1985)

Optional Swedish subtitles in separate idx/sub files.



For those of you who cannot download such dinosaurs.



Karen Blixen's eternal love story from Kenya won 7 Oscars. Thank you, Denmark!



Meryl Streep developed her convincing Danish accent by listening to actual recordings of Karen Blixen reading her works.

More fun stuff at IMDb Trivia



DVDrip, widescreen, XviD 2-pass 704x384, great stereo sound.

Burn tested, runs well in both my standalone DivX players.



My new ripping procedure now gives decent quality for such a long film compressed into just 700 MiB.





Format/Info : Audio Video Interleave

File size : 694 MiB

Duration : 2h 34mn

Overal bit rate : 629 Kbps



Video

Format : MPEG-4 Visual

Format profile : Streaming Video@L1

Format settings, BVOP : Yes

Format settings, QPel : No

Format settings, GMC : No warppoints

Format settings, Matrix : Default

Muxing mode : Packet Bitstream

Codec ID : XVID

Codec ID/Hint : XviD

Duration : 2h 34mn

Bit rate : 491 Kbps

Width : 704 pixels

Height : 384 pixels

Display aspect ratio : 16/9

Frame rate : 25.000 fps

Resolution : 8 bits

Colorimetry : 4:2:0

Scan type : Progressive

Bits/(Pixel*Frame) : 0.073

Stream size : 542 MiB

Writing library : XviD 1.2.0.dev47 (UTC 2006-11-01)



Audio

Format : MPEG Audio

Format version : Version 1

Format profile : Layer 3

Codec ID : 55

Codec ID/Hint : MP3

Duration : 2h 34mn

Bit rate mode : Constant

Bit rate : 128 Kbps

Minimum bit rate : 128 Kbps

Channel(s) : 2 channels

Sampling rate : 48.0 KHz

Resolution : 16 bits

Stream size : 141 MiB

Writing library : LAME3.97

Encoding settings : CBR



Source: PAL retail DVD 7.87 GiB

(Note that the Avi container will work independently of PAL/NTSC.)

Sharing Widget


Download torrent
694.58 MB
seeders:0
leechers:0
Out of Africa (1985) awesome DVDrip

Trackers

tracker name Status checked seeders leechers downloads
http://tracker.openbittorrent.com/announce
outdated 26 Jul 2013 - - -
http://inferno.demonoid.com:3409/announce
error 04 Apr 2010 - - -
http://www.sumotracker.com/announce
error 22 Apr 2009 - - -
http://tracker.zerotracker.com:2710/announce
error 22 Apr 2009 - - -
http://tracker.bitenova.nl:6968/announce
error 22 Apr 2009 - - -
http://tracker.bitenova.nl:6967/announce
error 22 Apr 2009 - - -
http://www.sumotracker.org/announce
error 22 Apr 2009 - - -
µTorrent compatible trackers list

Locations

name
Mininova
ThePirateBay
ExtraTorrent
Torrent hash: 5bd85e7e319bfa6956e93e50327e77c8f06675cb

All Comments

audio
8/10
video
8/10
please, leave only comments related to that torrent
or sign-in
0
ChasNZ857 • 28 October 2014, 03:36
torrent downloaded
Show comment
Thank you so much for these great oldies, IMDB top 100 and well worth a watch
0
sinsinety800 • 09 January 2014, 15:41
torrent downloaded
Show comment
audio: 8video: 8
1
gargler7510 • 10 October 2013, 03:45
torrent downloaded
Show comment
audio: 9video: 8
Excellent quality, superb movie, thanks from my parents and I!
0
canuckoos1363 • 07 July 2013, 15:32
torrent downloaded
Show comment
audio: 8video: 8
Anonymous is a crock. Nothing wrong with this representation of a classic movie. And thanks for the awesomely fast dl
0
anonymous • 23 June 2013, 06:35 Show comment
audio: 8video: 5
sorry everyone but the picture quality of this was pretty bad - not quite sure how any of you could vote it a 10?
0
bl4ckb1rd546 • 03 June 2013, 14:51
torrent downloaded
Show comment
audio: 10video: 10
very beautiful movie
0
anonymous • 29 March 2013, 16:22 Show comment
Is this the Universal 100 restauration?
0
TheMagneto5590 • 27 December 2012, 01:36
torrent downloaded
Show comment
thanks uploader
0
anonymous • 18 November 2012, 22:52 Show comment
audio: 9video: 8
Good quality, thanks!
Show More All

User Opinions

kinty22150, Dansy441396, fletchers1187, DennoM802, bl4ckb1rd546, Winree475, Anqa252, gkor33, franfd28, eas120 ... And 67 more
mandubaba650, bong_here272, paracha42031, andrewinnbo16, jeanpaul602410, kateaday3
Report a bug