Oblivion 2013 CAMrip XviD AC3 - TODE

seeders: 0
leechers: 0
updated:
Added by Silmarillion710.59K in Movies
Torrent verified. Downloaded 717 times.

  • add Oblivion to bookmarks
  • Release date: 19 April 2013
  • Writers: Karl Gajdusek (screenplay), Michael Arndt (screenplay), Joseph Kosinski (graphic novel original story)
  • Director: Joseph Kosinski
  • Language: English
Summary:

A veteran assigned to extract Earth's remaining resources begins to question what he knows about his mission and himself.

Written by thePiratePimp72.18K
Oblivion 2013 CAMrip XviD AC3 - TODE (Size: 697.5 MB)
  Oblivion 2013 CAMrip XviD AC3 - TODE.avi 697.5 MB

Description

http://www.shotpix.com/images/02835403299469441648.jpg


http://www.imdb.com/title/tt1483013/



A veteran assigned to extract Earth's remaining resources begins to question what he knows about his mission and himself.



Director:
Joseph Kosinski

Writers:
Joseph Kosinski ,Karl Gajdusek

Stars:
Tom Cruise, Morgan Freeman, Andrea Riseborough

Genres:
Action | Adventure | Sci-Fi | Thriller

Country:
USA

Language:
English


Thanks:FOX


Format : AVI
Format/Info : Audio Video Interleave
File size : 697 MiB
Duration : 1h 57mn
Overall bit rate : 833 Kbps
Writing application : Lavf54.59.103
Writing library : VirtualDub build 32842/release

Video
ID : 0
Format : MPEG-4 Visual
Format profile : Simple@L3
Format settings, BVOP : No
Format settings, QPel : No
Format settings, GMC : No warppoints
Format settings, Matrix : Default (H.263)
Codec ID : XVID
Codec ID/Hint : XviD
Duration : 1h 57mn
Bit rate : 694 Kbps
Width : 640 pixels
Height : 240 pixels
Display aspect ratio : 2.667
Frame rate : 25.000 fps
Color space : YUV
Chroma subsampling : 4:2:0
Bit depth : 8 bits
Scan type : Progressive
Compression mode : Lossy
Bits/(Pixel*Frame) : 0.181
Stream size : 581 MiB (83%)
Writing library : XviD 1.3.0.dev55

Audio
ID : 1
Format : AC-3
Format/Info : Audio Coding 3
Mode extension : CM (complete main)
Format settings, Endianness : Big
Codec ID : 2000
Duration : 1h 57mn
Bit rate mode : Constant
Bit rate : 128 Kbps
Channel(s) : 2 channels
Channel positions : Front: L R
Sampling rate : 48.0 KHz
Bit depth : 16 bits
Compression mode : Lossy
Stream size : 107 MiB (15%)
Alignment : Aligned on interleaves
Interleave, duration : 32 ms (0.80 video frame)
Interleave, preload duration : 512 ms




http://www.shotpix.com/images/38443311873592300442.png
http://www.shotpix.com/images/43309900276370001904.png
http://www.shotpix.com/images/32986535485667277955.png
http://www.shotpix.com/images/40810416343149127545.png
http://www.shotpix.com/images/67752650157624762519.png

Related Torrents

torrent name size files age seed leech

Sharing Widget


Download torrent
697.5 MB
seeders:0
leechers:0
Oblivion 2013 CAMrip XviD AC3 - TODE



To share this torrent use the code below and insert it into comments, status messages, forum posts or your signature.

Torrent: Oblivion 2013 CAMrip XviD AC3 - TODE

Trackers

tracker name
udp://tracker.openbittorrent.com:80/announce
udp://9.rarbg.com:2710/announce
udp://9.rarbg.me:2710/announce
http://exodus.desync.com/announce
http://tracker.ex.ua/announce
udp://tracker.istole.it:80/announce
udp://tracker.publicbt.com:80/announce
http://exodus.desync.com:6969/announce
udp://fr33domtracker.h33t.com:3310/announce
udp://ipv4.tracker.harry.lu:80/announce
µTorrent compatible trackers list

Locations

name
KickassTorrents
ExtraTorrent
Torrent hash: 4F8C01044CCB1A19088005757F4F4047A418221C

All Comments

audio
4/10
video
4/10
please, leave only comments related to that torrent
Sign In

another boring cruise vehicle
yup but its cinavia protected
Comment is deleted
how do you switch the wireless on the ps3?
SeedMoFo You're the muppet mate that makes no difference.

audio: 7video: 7
great film - takes watching several times - ALL COPIES ARE CAM RIGHT NOW -- 7 x 7 (there is some blurring / problems on every single copy I have downloaded)
audio: 1video: 2
It's useless
Show More All
audio: 6video: 3

User Opinions

slim712197, draven692134, bermon1673, mcjamie811, plham790, timeke706, iscotballs612, tttsakalos279, Regansmom7241, Themusicman22 ... And 22 more
azkahuna3624, matyk1156, hardheaded11012, DRMNBinx318, akylchinni106, DDre95, AzrielofBones0
Report a bug