Nancy Drew 2007 1CD DvDRip XviD Dual AudioEng-Hindi prince26121991

seeders: 0
leechers: 1
updated:
Added in Movies
Downloaded 10 times.

  • add Nancy Drew to bookmarks
  • Release date: 15 June 2007
  • Writers: Andrew Fleming (screenplay), Tiffany Paulsen (screenplay), Tiffany Paulsen (story), Mildred Wirt Benson (characters)
  • Director: Andrew Fleming
  • Languages: English , Hindi
Summary:

Teen detective Nancy Drew accompanies her father on a business trip to Los Angeles, where she happens upon clues to a murder mystery involving a movie star.

Written by 5fingerdis65.67K
Available in versions: DVDRip
Nancy Drew 2007 1CD DvDRip XviD Dual AudioEng-Hindi prince26121991 (Size: 695.54 MB)
  Nancy Drew 2007 1CD DvDRip XviD Dual Audio[Eng-Hindi] prince26121991.avi 695.54 MB

Description




Code:Format : AVIFormat/Info : Audio Video InterleaveFile size : 696 MiBDuration : 1h 35mnOverall bit rate : 1 018 KbpsVideoID : 0Format : MPEG-4 VisualFormat profile : Advanced Simple@L5Format settings, BVOP : 2Format settings, QPel : NoFormat settings, GMC : No warppointsFormat settings, Matrix : Default (H.263)Codec ID : XVIDCodec ID/Hint : XviDDuration : 1h 35mnBit rate : 881 KbpsWidth : 624 pixelsHeight : 256 pixelsDisplay aspect ratio : 2.40:1Frame rate : 25.000 fpsColor space : YUVChroma subsampling : 4:2:0Bit depth : 8 bitsScan type : ProgressiveCompression mode : LossyBits/(Pixel*Frame) : 0.221Stream size : 601 MiB (86%)Writing library : XviD 1.2.0SMP (UTC 2006-01-08)Audio #1ID : 1Format : AC-3Format/Info : Audio Coding 3Mode extension : CM (complete main)Codec ID : 2000Duration : 1h 34mnBit rate mode : ConstantBit rate : 64.0 KbpsChannel(s) : 2 channelsChannel positions : Front: L RSampling rate : 44.1 KHzBit depth : 16 bitsCompression mode : LossyStream size : 43.1 MiB (6%)Alignment : Aligned on interleavesInterleave, duration : 71 ms (1.77 video frames)Interleave, preload duration : 209 msTitle : HindiAudio #2ID : 2Format : AC-3Format/Info : Audio Coding 3Mode extension : CM (complete main)Codec ID : 2000Duration : 1h 35mnBit rate mode : ConstantBit rate : 64.0 KbpsChannel(s) : 2 channelsChannel positions : Front: L RSampling rate : 48.0 KHzBit depth : 16 bitsCompression mode : LossyStream size : 43.7 MiB (6%)Alignment : Aligned on interleavesInterleave, duration : 64 ms (1.60 video frames)Interleave, preload duration : 192 msTitle : Eng



















Nancy Drew 2007 1CD DvDRip XviD Dual Audio[Eng-Hindi] prince26121991 Sample






Sharing Widget


Download torrent
695.54 MB
seeders:0
leechers:1
Nancy Drew 2007 1CD DvDRip XviD Dual AudioEng-Hindi prince26121991



To share this torrent use the code below and insert it into comments, status messages, forum posts or your signature.

Torrent: Nancy Drew 2007 1CD DvDRip X...udioEng-Hindi prince26121991

Trackers

tracker name
udp://9.rarbg.com:2710/announce
udp://tracker.publicbt.com:80/announce
udp://tracker.openbittorrent.com:80/announce
udp://tracker.istole.it:80/announce
http://tracker.openbittorrent.com/announce
http://tracker.istole.it/announce
udp://tracker.1337x.org:80/announce
http://exodus.desync.com:6969/announce
http://i.bandito.org/announce
http://tracker.tfile.me/announce
http://tracker.publicbt.com/announce
http://torrentforce.org:2710/announce
udp://torrentforce.org:2710/announce
ĀµTorrent compatible trackers list

Locations

name
ExtraTorrent
Torrent hash: 85b777eb8be82e57070f059505f9117529564bcf

All Comments

audio
8/10
video
7/10
please, leave only comments related to that torrent
Sign In

audio: 8video: 8
thanks buddy
not able to download this torrent help??????????????????
audio: 9video: 9
nice copy thanks prince go ahead need more
audio: 7video: 6
print is just good

User Opinions

prince3915744, VON1221725, Riderx460
Report a bug