Naked Weapon (PSP + Ipod touch + Zune)

seeders: 0
leechers: 0
updated:
Added in Movies > Handheld
Torrent verified. Downloaded 0 times.

Naked Weapon (PSP + Ipod touch + Zune) (Size: 345.5 MB)
  Naked Weapon-OOO.m4v 345.5 MB

Description

Naked Weapon

http://www.imdb.com/title/tt0341495/



Source :


Naked.Weapon.2002.720p.BluRay.x264-MELiTE (English)


Info :


ID : 1
Format : AVC
Format/Info : Advanced Video Codec
Format profile : Baseline@L2.0
Format settings, CABAC : No
Format settings, ReFrames : 3 frames
Codec ID : avc1
Codec ID/Info : Advanced Video Coding
Duration : 1h 31mn
Bit rate mode : Variable
Bit rate : 395 Kbps
Width : 384 pixels
Height : 208 pixels
Display aspect ratio : 16:9
Frame rate mode : Variable
Frame rate : 24.000 fps
Minimum frame rate : 23.810 fps
Maximum frame rate : 24.390 fps
Color space : YUV
Chroma subsampling : 4:2:0
Bit depth : 8 bits
Scan type : Progressive
Bits/(Pixel*Frame) : 0.206
Stream size : 259 MiB (75%)
Writing library : x264 core 79


ID : 2
Format : AAC
Format/Info : Advanced Audio Codec
Format version : Version 4
Format profile : LC
Format settings, SBR : No
Codec ID : 40
Duration : 1h 31mn
Bit rate mode : Variable
Bit rate : 128 Kbps
Maximum bit rate : 163 Kbps
Channel(s) : 2 channels
Channel positions : Front: L R
Sampling rate : 48.0 KHz
Stream size : 83.9 MiB (24%)


Screens:


http://img268.imageshack.us/.../nakedweaponooom4vthumbs.jpg




PLEASE DONT COMPLAIN ABOUT MISSING SUBTITLES.. I DONT DO SUBS.. =)

PLEASE LET THE TORRENT SEED AND SPREAD THE WORD ABOUT

Let me know what I can do to be your trusted source of Handheld videos.

http://thepiratebay.org/user/on.off.on/ -OOO

Sharing Widget


Download torrent
345.5 MB
seeders:0
leechers:0
Naked Weapon (PSP + Ipod touch + Zune)



To share this torrent use the code below and insert it into comments, status messages, forum posts or your signature.

Torrent: Naked Weapon (PSP + Ipod touch + Zune)

Trackers

tracker name
http://pow7.com/announce
http://tracker.torrentbay.to:6969/announce
http://bt.rghost.net/announce
http://10.rarbg.com/announce
http://tracker.ex.ua/announce
http://tracker.istole.it/announce
http://nemesis.1337x.org/announce
http://torrent-downloads.to:5869/announce
http://tracker.openbittorrent.com/announce
http://open-tracker.info:6969/announce
http://11.rarbg.com/announce
udp://tracker.publicbt.com:80/announce
udp://tracker.istole.it:80/announce
udp://tracker.openbittorrent.com:80/announce
http://tracker.ilibr.org:6969/announce
udp://tracker.ilibr.org:6969/announce
http://tracker.publicbt.com/announce
http://free.btr.kz:8888/announce
http://9.rarbg.com:2710/announce
http://tracker.bitreactor.to:2710/announce
http://sombarato.org:6969/announce
http://idowns.org:6969/announce
ĀµTorrent compatible trackers list

Locations

name
ThePirateBay
Limetorrents
Torrent hash: dd6122e77a0e0dde826bed53addee0d3e9999c08

All Comments

audio
9/10
video
9/10
please, leave only comments related to that torrent
Sign In

audio: 9video: 9
Nice Movie....

User Opinions

Report a bug