Middle Men 2009 LIMITED 720p BRRip x264 Feel-Free

seeders: 0
leechers: 0
updated:
Added by Mantesh242.52K in Movies > Highres Movies
Torrent verified. Downloaded 10 times.

Summary:

Chronicles Jack Harris, one of the pioneers of internet commerce, as he wrestles with his morals and struggles not to drown in a sea of conmen, mobsters, drug addicts, and pornstars.

Written by K0Z57.89K
Available in versions: 1080p720pHDRiPDVDRip
Middle Men 2009 LIMITED 720p BRRip x264 Feel-Free (Size: 2.1 GB)
  7588e6137a99ca6db9c50dd35a0c2d2a53928206.jpg 49.34 KB
  Middle.Men.2009.LIMITED.720p.BRRip.x264 2.67 KB
  Middle.Men.2009.LIMITED.720p.BRRip.x264.Feel-Free.mp4 2.09 GB
  Middle.Men.2009.LIMITED.720p.BRRip.x264.Feel-Free.srt 131.22 KB
  Torrent downloaded from extratorrent.com.txt 119 bytes
  vlcsnap-00001.png 1.09 MB
  vlcsnap-00002.png 1.04 MB
  vlcsnap-00003.png 909.9 KB
  vlcsnap-00004.png 930.11 KB
  vlcsnap-00005.png 848.48 KB

Description

image









Genre:Comedy | Crime | Drama
Language:English
IMDb:http://www.imdb.com/title/tt1251757/
Source:1080p.BluRay.x264-SECTOR7
Subtitles:Romana


Format : MPEG-4
Format profile : Base Media
Codec ID : isom
File size : 2.09 GiB
Duration : 1h 52mn
Overall bit rate : 2 671 Kbps
Movie name : Middle.Men.2009.LIMITED.720p.BRRip.x264.Feel-Free


Video
Format settings, CABAC : Yes
Format settings, ReFrames : 4 frames
Format settings, GOP : M=4, N=16
Codec ID : avc1
Codec ID/Info : Advanced Video Coding
Duration : 1h 52mn
Bit rate mode : Variable
Bit rate : 2 300 Kbps
Width : 1 280 pixels
Height : 528 pixels
Display aspect ratio : 2.40:1
Frame rate mode : Constant
Frame rate : 23.976 fps
Color space : YUV
Chroma subsampling : 4:2:0
Bit depth : 8 bits
Scan type : Progressive
Bits/(Pixel*Frame) : 0.142
Stream size : 1.79 GiB (85%)
Writing library : x264

Audio
ID : 2
Format : AAC
Format/Info : Advanced Audio Codec
Format version : Version 4
Format profile : LC
Codec ID : 40
Duration : 1h 52mn
Bit rate mode : Variable
Bit rate : 384 Kbps
Channel(s) : 6 channels
Channel positions : Front: L C R, Side: L R, LFE
Sampling rate : 48.0 KHz
Stream size : 308 MiB (14%)



Plot:
Chronicles Jack Harris, one of the pioneers of internet commerce, as he wrestles with his morals and struggles not to drown in a sea of conmen, mobsters, drug addicts, and pornstars.







image

Related Torrents

torrent name size files age seed leech

Sharing Widget


Download torrent
2.1 GB
seeders:0
leechers:0
Middle Men 2009 LIMITED 720p BRRip x264 Feel-Free



To share this torrent use the code below and insert it into comments, status messages, forum posts or your signature.

Torrent: Middle Men 2009 LIMITED 720p BRRip x264 Feel-Free

Trackers

tracker name
udp://tracker.openbittorrent.com:80/announce
udp://tracker.publicbt.com:80/announce
http://exodus.1337x.org/announce
http://nemesis.1337x.org/announce
http://genesis.1337x.org:1337/announce
http://tracker.openbittorrent.com/announce
http://tracker.publicbt.com/announce
µTorrent compatible trackers list

Locations

name
KickassTorrents
ExtraTorrent
ThePirateBay
1337x
Torrent hash: 9a491c3690d684888b712ca0f6db47447cbc057e

Top Comments

3
capitolfi14.79K
audio: 10video: 10
Outstanding. Thanks.
3
OutOnBail915
audio: 9video: 9
Great movie.
Good Quality
3
xtremebob3782
audio: 9video: 8
a bit over-compressed, but a very good copy. Great work

All Comments

audio
9/10
video
9/10
please, leave only comments related to that torrent
Sign In

audio: 10video: 10
Thank you!
audio: 10video: 10
High quality audio and 1280x528 video. With Romanian subtitles. Enjoyed watching on PC. Thank you
audio: 8video: 8
Thanks for the upload, nice movie and quality is good.
audio: 10video: 10
good movie.
audio: 10video: 10
Great quality, good movie, Thanks.
audio: 8video: 8
very good thanks
Show More All

User Opinions

q8djent6178, inn2pink4134, Viewer_553982, Itchmaniac2926, achaian800, 1sean184, jdrain168, andreittk167, ultimatedownloader56, oureuphoriant18 ... And 52 more
msdelipsis3565, skandic269, Chukizzz82
Report a bug