Michael Collins (1996) DVDrip [Liam Neeson, Julia Roberts]

seeders: 17
leechers: 2
updated:
Added in Movies
Torrent verified. Downloaded 1,028 times.

Summary:

Michael Collins plays a crucial role in the establishment of the Irish Free State in the 1920s, but becomes vilified by those hoping to create a completely independent Irish republic.

Written by thePiratePimp72.83K
Available in versions: 1080p720pHDRiPDVDRipx264x265
Michael Collins (1996) DVDrip [Liam Neeson, Julia Roberts] (Size: 1 GB)
  Michael.Collins.(1996).avi 1 GB
  Torrent downloaded from Demonoid.com.txt 47 bytes

Description




His dreams inspired hope. His words inspired passion. His courage forged a nation's destiny...
After the disastrous defeat of Irish rebels by superior British forces during the Easter Week rebellion of 1916,
Michael Collins develops new strategies for the independence of Ireland. His tactics include what is now recognized as
urban guerrilla tactics and organized assassinations of G-Men, those Irish who work as informers for the British, and
later members of British intelligence. Although Collins is conflicted about the necessity of this violent course, by
1921 the British are willing to negotiate and Sinn Fein President Eamon de Valera sends a reluctant Collins to London to
negotiate a settlement. When Collins returns with a compromise of a divided Ireland and an Irish Free State, not a
Republic, he is vilified by de Valera and repudiated by lifelong friend Harry Boland after Boland learns that his
girlfriend Kitty Kiernan is in love with Collins, not him. Collins is now faced with civil war as he struggles against
those who insist on complete freedom for all of Ireland.
https://images-eu.ssl-images.../I/51QNJ8NQKDL._SL500.jpg
/>
[
http://upload.wikimedia.org/...02px-Michael_collins_dvd.jpg ]
Liam Neeson, Julia Roberts, Aidan Quinn, Alan Rickman, Stephen Rea...

Director: Neil Jordan

http://www.imdb.com/title/tt0117039/
Specs:
Video-

Codec: XviD

Resolution: 608x336

Frame Rate: 25.000

Audio-

Codec: a52

Channels: 5

Sample Rate: 48000 Hz

Bitrate: 384 kb/s
Running Time: 2:07:10
Want more Julia Roberts? Try this smokinnnn' download:
Conspiracy Theory (1997)

Mel Gibson, Julia Roberts, Patrick Stewart...

http://www.demonoid.com/files/details/1744372/2109276/
/>

Sharing Widget


Download torrent
1 GB
seeders:7
leechers:5
Michael Collins (1996) DVDrip [Liam Neeson, Julia Roberts]



To share this torrent use the code below and insert it into comments, status messages, forum posts or your signature.

Torrent: Michael Collins (1996) DVDrip [Liam Neeson, Julia Roberts]

Trackers

tracker name
udp://tracker.openbittorrent.com:80/announce
udp://tracker.publicbt.com:80/announce
udp://inferno.demonoid.com:3410/announce
http://tracker.openbittorrent.com/announce
http://tracker.publicbt.com/announce
http://inferno.demonoid.com:3410/announce
ĀµTorrent compatible trackers list

Locations

name
Torrentzap
ExtraTorrent
ThePirateBay
SumoTorrent
Torrent hash: e27b0e62035123f2ce641ad900302cfcfef7853a

All Comments

audio
9/10
video
8/10
please, leave only comments related to that torrent
Sign In

audio: 10video: 7
The video stops for a few seconds at 1 hour 40 minutes, and resumes, but subs go out of sync by a few secs after that



Format : AVI
Format/Info : Audio Video Interleave
File size : 1.00 GiB
Duration : 2h 7mn
Overall bit rate : 1 129 Kbps
Movie name : Michael Collins .01 / Michael Collins .02
Director : Cosimo / Cosimo
Subject : Michael Collins .01 / Michael Collins .02
Writing application : VirtualDubMod 1.5.10.2 (build 2542/release)
Writing library : VirtualDubMod build 2542/release
Copyright : 05.09.2003 / 5.09.2003
Comment : 0723.426893 / 0723.426893

Video
ID : 0
Format : MPEG-4 Visual
Format profile : Advanced Simple@L5
Format settings, BVOP : 2
Format settings, QPel : No
Format settings, GMC : No warppoints
Format settings, Matrix : Default (H.263)
Muxing mode : Packed bitstream
Codec ID : XVID
Codec ID/Hint : XviD
Duration : 2h 7mn
Bit rate : 735 Kbps
Width : 608 pixels
Height : 336 pixels
Display aspect ratio : 16:9
Frame rate : 25.000 fps
Color space : YUV
Chroma subsampling : 4:2:0
Bit depth : 8 bits
Scan type : Progressive
Compression mode : Lossy
Bits/(Pixel*Frame) : 0.144
Stream size : 669 MiB (65%)
Writing library : XviD 1.2.1 (UTC 2008-12-04)

Audio
ID : 1
Format : AC-3
Format/Info : Audio Coding 3
Mode extension : CM (complete main)
Format settings, Endianness : Big
Codec ID : 2000
Duration : 2h 7mn
Bit rate mode : Constant
Bit rate : 384 Kbps
Channel(s) : 6 channels
Channel positions : Front: L C R, Side: L R, LFE
Sampling rate : 48.0 KHz
Compression mode : Lossy
Stream size : 349 MiB (34%)
Alignment : Split accross interleaves
Interleave, duration : 40 ms (1.00 video frame)
Interleave, preload duration : 500 ms
audio: 8video: 7
Thank you.
Show More All

User Opinions

davidlb11.6K, Pierro506433, Aldari0n4311, Kefalonetis956, jefe2119669, chichi22655, rashidbaloch495, grampys_boy171, nealo62, dubliner931 ... And 163 more
kekosbilkos350, k-urchin230, boumy184, madegg6913, amers88goo5
Report a bug Open chat