Miami Vice 2006 Unrated 720p BRRip H264 AAC-Rx(Phoenix-RG)

seeders: 7
leechers: 0
updated:
Added in Movies > Highres Movies
Torrent verified. Downloaded 33 times.

Summary:

Based on the 1980s TV action/drama, this update focuses on vice detectives Crockett and Tubbs as their respective personal and professional lives become dangerously intertwined.

Written by Dragma43.99K
Available in versions: 1080p720pHDRiPDVDRip
Miami Vice 2006 Unrated 720p BRRip H264 AAC-Rx(Phoenix-RG) (Size: 2.05 GB)
  Miami Vice 2006 Unrated 720p BRRip H264 AAC-Rx(Phoenix-RG).mp4 2.05 GB
  Cover
  Sites, Info, Tracker
  Sub

Description

Miami Vice 2006 Unrated 720p BRRip H264 AAC-Rx(Phoenix-RG).mp4
Format : MPEG-4 /AVC
File size : 2.05 GiB
Duration : 2h 19mn
Bit rate : 1 800 Kbps
Width : 1 280 pixels
Height : 536 pixels
Display aspect ratio : 2.35
Frame rate : 23.976 fps
Resolution : 24 bits
Colorimetry : 4:2:0
Scan type : Progressive
Bits/(Pixel*Frame) : 0.109
Stream size : 1.75 GiB (85%)


AUDIO:
Format : AAC / LC
Duration : 2h 19mn
Bit rate : 309 Kbps
Channel(s) : 6 channels
Channel positions : Front: L C R, Rear: L R, LFE
Sampling rate : 48.0 KHz
Resolution : 16 bits
Stream size : 307 MiB (15%)


SCREEN:

http://img801.imageshack.us/.../vlcsnap2010090608h02m02.jpg

http://img808.imageshack.us/.../vlcsnap2010090608h02m28.jpg

http://img809.imageshack.us/.../vlcsnap2010090608h07m26.jpg

Sharing Widget


Download torrent
2.05 GB
seeders:7
leechers:0
Miami Vice 2006 Unrated 720p BRRip H264 AAC-Rx(Phoenix-RG)



To share this torrent use the code below and insert it into comments, status messages, forum posts or your signature.

Torrent: Miami Vice 2006 Unrated 720p BRRip H264 AAC-Rx(Phoenix-RG)

Trackers

tracker name
udp://tracker.openbittorrent.com:80/announce
udp://tracker.publicbt.com:80/announce
http://10.rarbg.com/announce
http://tracker.token.ro/announce
http://genesis.1337x.org:1337/announce
http://exodus.1337x.org/announce
http://photodiode.mine.nu/announce
http://tracker.openbittorrent.com/announce
http://nemesis.1337x.org/announce
udp://inferno.demonoid.com:3402/announce
http://fr33dom.h33t.com:3310/announce
http://tracker.publicbt.com/announce
http://www.h33t.com:3310/announce
http://inferno.demonoid.com:3402/announce
ĀµTorrent compatible trackers list

Locations

name
ThePirateBay
ExtraTorrent
1337x
Limetorrents
Limetorrents
KickassTorrents
Torrent hash: 90ae4df38fb2100b79ea60d566eb50a1dcab6bff

All Comments

audio
8/10
video
8/10
please, leave only comments related to that torrent
Sign In

audio: 10video: 8
a 10 v 8

the picture is a little grainy
movie story is ok
audio: 10video: 10
Outstanding! Thanks!
audio: 9video: 9
Crispy clear audio and video, UNCUT original length! Killer movie! V9 A9 Movie 10!!!
audio: 10video: 10
Awesome Quality Thanks!I'm really surprised how guys like you can keep their respective torrents alive for so long..Great work!!biggrin
audio: 9video: 9
nice, thanks
audio: 9video: 8
Good torrent.
Thxs man!
audio: 8video: 9
good movie
audio: 8video: 8
Great download, thanks. Dialog was difficult to understand, but good movie.
audio: 10video: 10
Great movie this verion i saw a other version that was not so good with deleted scenes ! GREAT COPY !!!
Show More All

User Opinions

WhiteFrog4257, Viewer_553982, ryanchrisknox497, elsaroger354, gueon285, omer7092257, jessec35160, Piki75134, theboo39133, Blaze58851 ... And 110 more
KitKat4.4.22214, holmetop1202, DerKoal704, Mark6254182
Report a bug