Love Happens 2009 DVDRip XviD-Emery

seeders: 1
leechers: 0
updated:
Added in Movies
Torrent verified. Downloaded 10 times.

Summary:

A widower whose book about coping with loss turns him into a best-selling self-help guru, falls for the hotel florist where his seminar is given, only to learn that he hasn't yet truly confronted his wife's passing.

Written by phoenix66118.92K
Available in versions: 1080pHDRiPDVDRip
Love Happens 2009 DVDRip XviD-Emery (Size: 704.96 MB)
  Love.Happens.2009.DVDRip.XviD-Emery.avi 704.96 MB
  emery.nfo 3.98 KB

Description

General
Complete name : Love.Happens.2009.DVDRip.XviD-Emery.avi
Format : AVI
Format/Info : Audio Video Interleave
File size : 705 MiB
Duration : 1h 49mn
Overall bit rate : 904 Kbps
Writing application : VirtualDubMod 1.5.10.2 (build 2540/release)
Writing library : VirtualDubMod build 2540/release

Video
ID : 0
Format : MPEG-4 Visual
Format profile : AdvancedSimple@L5
Format settings, BVOP : Yes
Format settings, QPel : No
Format settings, GMC : No warppoints
Format settings, Matrix : Default (H.263)
Muxing mode : Packed bitstream
Codec ID : XVID
Codec ID/Hint : XviD
Duration : 1h 49mn
Bit rate : 766 Kbps
Width : 608 pixels
Height : 320 pixels
Display aspect ratio : 1.900
Frame rate : 23.976 fps
Resolution : 24 bits
Colorimetry : 4:2:0
Scan type : Progressive
Bits/(Pixel*Frame) : 0.164
Stream size : 598 MiB (85%)
Writing library : XviD 1.2.1 (UTC 2008-12-04)

Audio
ID : 1
Format : MPEG Audio
Format version : Version 1
Format profile : Layer 3
Codec ID : 55
Codec ID/Hint : MP3
Duration : 1h 49mn
Bit rate mode : Constant
Bit rate : 128 Kbps
Channel(s) : 2 channels
Sampling rate : 48.0 KHz
Resolution : 16 bits
Stream size : 99.9 MiB (14%)
Alignment : Aligned on interleaves
Interleave, duration : 42 ms (1.00 video frame)
Interleave, preload duration : 504 ms

Sharing Widget


Download torrent
704.96 MB
seeders:1
leechers:0
Love Happens 2009 DVDRip XviD-Emery



To share this torrent use the code below and insert it into comments, status messages, forum posts or your signature.

Torrent: Love Happens 2009 DVDRip XviD-Emery

Trackers

tracker name
udp://tracker.openbittorrent.com:80/announce
udp://tracker.publicbt.com:80/announce
http://tracker.openbittorrent.com/announce
http://tracker.publicbt.com/announce
µTorrent compatible trackers list

Locations

name
ThePirateBay
ExtraTorrent
Torrent hash: 25b646713f48f09f8ed06df34a217a0afd63dbba

Top Comments

2
sexily397
audio: 10video: 10

All Comments

audio
9/10
video
9/10
please, leave only comments related to that torrent
Sign In

audio: 9video: 9
thank you very nice movie and good quality
great torrent
a kiss to uploader :)
I love kick ass!!! thanks uploader!!
audio sucks... no voices... wth?
audio: 8video: 8
Good AV ... thanks uploader n seeders ... tongue
Show More All

User Opinions

Dankestbuds1354, scipio314841, bentorr405, wazs292, rathead1175, kimimimi172, saso22117, ismaeel105, sir andy96, VidaX76 ... And 117 more
ghadir566
Report a bug