Like Someone In Love 2012 DVDRip XviD AC3 HORiZON-ArtSubs

seeders: 17
leechers: 2
updated:
Added in Movies > Asian
Torrent verified. Downloaded 709 times.

Summary:

In Tokyo, a young prostitute develops an unexpected connection with a widower over a period of two days.

Written by TheStrength54.86K
Available in versions: 1080p720pDVDRip
Like Someone In Love 2012 DVDRip XviD AC3 HORiZON-ArtSubs (Size: 1.25 GB)
  Like.Someone.In.Love.2012.DVDRip.XviD.AC3.HORiZON-ArtSubs.avi 1.25 GB
  Like.Someone.In.Love.2012.DVDRip.XviD.AC3.HORiZON-ArtSubs.srt 65.75 KB

Description

Title:
Like Someone in Love

Country:
Japan/Iran/France/2012

Language:
Japanese

Subtitle:
English (srt)

Director:
Abbas Kiarostami

Writer:
Abbas Kiarostami (screenplay)

Stars:
Rin Takanashi, Tadashi Okuno, Ryo Kase

Synopsis:
In Tokyo, a young prostitute develops an unexpected connection with a widower over a period of two days.

Trivia:
Official Selection Cannes Film Festival 2012

Imdb:
http://www.imdb.com/title/tt1843287

Trailer:
http://www.bandes-annonces.f...nonce-likesomeoneinlove.html


Media Info:

General
Complete name : Like.Someone.In.Love.2012.DVDRip.XviD.AC3.HORiZON-ArtSubs.avi
Format : AVI
Format/Info : Audio Video Interleave
File size : 1.25 GiB
Duration : 1h 45mn
Overall bit rate : 1 703 Kbps

Video
ID : 0
Format : MPEG-4 Visual
Format profile : Advanced Simple@L5
Format settings, BVOP : 2
Format settings, QPel : No
Format settings, GMC : No warppoints
Format settings, Matrix : Default (MPEG)
Codec ID : XVID
Codec ID/Hint : XviD
Duration : 1h 45mn
Bit rate : 1 565 Kbps
Width : 720 pixels
Height : 432 pixels
Display aspect ratio : 1.667
Frame rate : 25.000 fps
Color space : YUV
Chroma subsampling : 4:2:0
Bit depth : 8 bits
Scan type : Progressive
Compression mode : Lossy
Bits/(Pixel*Frame) : 0.201
Stream size : 1.15 GiB (92%)
Writing library : XviD 1.2.1 (UTC 2008-12-04)

Audio
ID : 1
Format : MPEG Audio
Format version : Version 1
Format profile : Layer 3
Mode : Joint stereo
Codec ID : 55
Codec ID/Hint : MP3
Duration : 1h 45mn
Bit rate mode : Constant
Bit rate : 128 Kbps
Channel(s) : 2 channels
Sampling rate : 48.0 KHz
Compression mode : Lossy
Stream size : 96.2 MiB (8%)
Alignment : Aligned on interleaves
Interleave, duration : 40 ms (1.00 video frame)
Interleave, preload duration : 504 ms
Writing library : LAMEI¦o„¡&D2Ûs(vó

Related Torrents

torrent name size files age seed leech

Sharing Widget


Download torrent
1.25 GB
seeders:17
leechers:2
Like Someone In Love 2012 DVDRip XviD AC3 HORiZON-ArtSubs



To share this torrent use the code below and insert it into comments, status messages, forum posts or your signature.

Torrent: Like Someone In Love 2012 DVDRip XviD AC3 HORiZON-ArtSubs

Trackers

tracker name
udp://tracker.coppersurfer.tk:6969/announce
udp://tracker.openbittorrent.com:80/announce
udp://tracker.publicbt.com:80/announce
udp://tracker.istole.it:80/announce
udp://11.rarbg.com:80/announce
http://exodus.desync.com:6969/announce
udp://fr33dom.h33t.com:3310/announce
udp://fr33domtracker.h33t.com:3310/announce
udp://ipv4.tracker.harry.lu:80/announce
µTorrent compatible trackers list

Locations

name
ThePirateBay
Torrent hash: CA9F9B89C7EC501BF66EE0C61FF65582BD729D7B

All Comments

audio
9/10
video
9/10
please, leave only comments related to that torrent
Sign In

Good Quality. Thank you!
audio: 8video: 8
Gracias. Thanks.
audio: 10video: 10
great upload
with eng subs using VLC. thanks a lot! :D great copy too! :D
audio: 10video: 10
great copy with english subs in VLC! thanks a lot! :D
audio: 9video: 9
very boring and predictable...fast download...
audio: 9video: 9
good movies, thanks
Show More All

User Opinions

Armoreska5564, dreamer_the_one4546, locolopes4412, wealthlife1806, pachyderme1010, BBRoamer764, ClearDawn528, lmaoxlong438, pupnut410, MissVicky265 ... And 89 more
limoncu1182
Report a bug Open chat