Kung Fu Panda.2008.BRrip.Dual Audio(Eng-Hindi).aaaevilacharya

seeders: 0
leechers: 0
updated:
Added in Movies > Animation
Torrent verified. Downloaded 17 times.

  • add Kung Fu Panda to bookmarks
  • Release date: 06 June 2008
  • Writers: Jonathan Aibel (screenplay), Glenn Berger (screenplay), Ethan Reiff (story), Cyrus Voris (story)
Summary:

In the Valley of Peace, Po the Panda finds himself chosen as the Dragon Warrior despite the fact that he is obese and a complete novice at martial arts.

Written by 5fingerdis65.72K
Available in versions: 1080p720pBDRipHDRiPDVDRipx264x265
Kung Fu Panda.2008.BRrip.Dual Audio(Eng-Hindi).aaaevilacharya (Size: 782.66 MB)
  Kung Fu Panda.2008.BRrip.Dual Audio(Eng-Hindi).aaaevilacharya.mkv 782.29 MB
  Kung Fu Panda.2008.BRrip.Dual Audio(Eng-Hindi).aaaevilacharya.jpg 222.44 KB
  snapshot20100919224006.jpg 43.64 KB
  snapshot20100919223928.jpg 42.93 KB
  snapshot20100919223945.jpg 34.33 KB
  snapshot20100919223911.jpg 31.29 KB

Description



General
Complete name : Kung Fu Panda.2008.BRrip.Dual Audio(Eng-Hindi).aaaevilacharya
Format : Matroska
File size : 782 MiB
Duration : 1h 31mn
Overall bit rate : 1 189 Kbps
Writing application : AVI-Mux GUI 1.17.7

Video
ID : 1
Format : MPEG-4 Visual
Format profile : Advanced Simple@L5
Format settings, BVOP : Yes
Format settings, QPel : No
Format settings, GMC : No warppoints
Format settings, Matrix : Default (H.263)
Codec ID : DX50
Codec ID/Hint : DivX 5
Duration : 1h 31mn
Bit rate : 909 Kbps
Width : 700 pixels
Height : 292 pixels
Display aspect ratio : 2.35:1
Frame rate : 23.976 fps
Color space : YUV
Chroma subsampling : 4:2:0
Bit depth : 8 bits
Scan type : Progressive
Bits/(Pixel*Frame) : 0.186
Stream size : 598 MiB (76%)


Audio #1
ID : 2
Format : MPEG Audio
Format version : Version 1
Format profile : Layer 3
Codec ID : A_MPEG/L3
Codec ID/Hint : MP3
Duration : 1h 31mn
Bit rate mode : Constant
Bit rate : 128 Kbps
Channel(s) : 2 channels
Sampling rate : 48.0 KHz
Stream size : 84.2 MiB (11%)
Title : English
Language : English

Audio #2
ID : 3
Format : MPEG Audio
Format version : Version 1
Format profile : Layer 3
Codec ID : A_MPEG/L3
Codec ID/Hint : MP3
Duration : 1h 31mn
Bit rate mode : Constant
Bit rate : 128 Kbps
Channel(s) : 2 channels
Sampling rate : 44.1 KHz
Stream size : 84.2 MiB (11%)
Title : Hindi
Language : Hindi







seeds & enjoy...If you liked my upload then leave a review to me

Related Torrents

torrent name size files age seed leech

Sharing Widget


Download torrent
782.66 MB
seeders:0
leechers:0
Kung Fu Panda.2008.BRrip.Dual Audio(Eng-Hindi).aaaevilacharya



To share this torrent use the code below and insert it into comments, status messages, forum posts or your signature.

Torrent: Kung Fu Panda.2008.BRrip.Dua...io(Eng-Hindi).aaaevilacharya

Trackers

tracker name
http://tracker.csze.com/announce
udp://tracker.torrentbox.com:2710/announce
udp://tracker.openbittorrent.com:80/announce
udp://tracker.publicbt.com:80/announce
udp://tracker.istole.it:80/announce
udp://tracker.coppersurfer.tk:6969/announce
udp://glotorrents.pw:6969/announce
http://tracker.ex.ua/announce
udp://tracker.ccc.de:80/announce
http://torrent-download.to:5869/announce
µTorrent compatible trackers list

Locations

name
ExtraTorrent
Torrent hash: 434dfe2d4be837a9c5089dec0714f4f7a73e88ac

All Comments

audio
8/10
video
8/10
please, leave only comments related to that torrent
Sign In

audio: 10video: 10
Awesome Dubbing !!
audio: 9video: 9
good one
great torrent but wont burn.
audio: 7video: 7
thanks very much
audio: 9video: 9
great quality! thanks ;)
Show More All

User Opinions

Report a bug Open chat