Kung Fu Panda 2 2011 TS x264 Feel-Free

seeders: 0
leechers: 0
updated:
Added in Movies > Animation
Torrent verified. Downloaded 10 times.

Summary:

Po and his friends fight to stop a peacock villain from conquering China with a deadly new weapon, but first the Dragon Warrior must come to terms with his past.

Written by Thhaque413.79K
Kung Fu Panda 2 2011 TS x264 Feel-Free (Size: 968.62 MB)
  kung-fu-panda-2-w342.jpg 77.22 KB
  Kung.Fu.Panda.2.2011.TS.x264 2.78 KB
  Kung.Fu.Panda.2.2011.TS.x264.Feel-Free.mp4 967.08 MB
  Torrent downloaded from extratorrent.com.txt 119 bytes
  vlcsnap-00001.png 263.49 KB
  vlcsnap-00002.png 333.98 KB
  vlcsnap-00003.png 233.87 KB
  vlcsnap-00004.png 245.56 KB
  vlcsnap-00005.png 425.52 KB

Description


image





Genre:Animation | Action | Adventure

Language:English

IMDb:http://www.imdb.com/title/tt1302011/

Source:Russian/EP1C Thanks!



Format : MPEG-4

Format profile : Base Media

Codec ID : isom

File size : 967 MiB

Duration : 1h 20mn

Overall bit rate : 1 670 Kbps



Video

ID : 1

Format : AVC

Format/Info : Advanced Video Codec

Format profile : High@L4.1

Format settings, CABAC : Yes

Format settings, ReFrames : 3 frames

Format settings, GOP : M=3, N=12

Codec ID : avc1

Codec ID/Info : Advanced Video Coding

Duration : 1h 20mn

Bit rate mode : Variable

Bit rate : 1 436 Kbps

Maximum bit rate : 6 671 Kbps

Width : 672 pixels

Height : 352 pixels

Display aspect ratio : 1.909

Frame rate mode : Constant

Frame rate : 25.000 fps

Color space : YUV

Chroma subsampling : 4:2:0

Bit depth : 8 bits

Scan type : Progressive

Bits/(Pixel*Frame) : 0.243

Stream size : 835 MiB (86%)

Writing library : x264



Audio

ID : 2

Format : AAC

Format/Info : Advanced Audio Codec

Format version : Version 4

Format profile : LC

Format settings, SBR : No

Codec ID : 40

Duration : 1h 20mn

Bit rate mode : Variable

Bit rate : 224 Kbps

Maximum bit rate : 241 Kbps

Channel(s) : 2 channels

Channel positions : Front: L R

Sampling rate : 48.0 KHz

Stream size : 130 MiB (13%)



Plot:

Po joins forces with a group of new kung-fu masters to take on an old enemy with a deadly new weapon



TRAILER:

[embed=youtube]http://www.youtube.com/watch?v=YdaMGcOyfjM&feature=player_embedded[/embed]



image

image

image

image

image



Greets:



INK,CRYS,IMAGINE,LKRG,FXG,3Li,FLAWL3SS,TA,iLLUSiON,ViSiON,DTRG SAFCuk009,LU,TheFalcon007,MYSTiC,PrisM,Noir,WBZ,LAP,Rx,Kingdom,SAFCuk009+Fabreezy,HDLiTE,TWiZTED,ExtraTorrentRG.ELEKTRI4KA,MAGNAT,CM8

And to all the other p2p grps past and present









Make sure its a real Feel-Free release @ http://extratorrent.com




Related Torrents

torrent name size files age seed leech

Sharing Widget


Download torrent
968.62 MB
seeders:0
leechers:1
Kung Fu Panda 2 2011 TS x264 Feel-Free



To share this torrent use the code below and insert it into comments, status messages, forum posts or your signature.

Torrent: Kung Fu Panda 2 2011 TS x264 Feel-Free

Trackers

tracker name
http://pow7.com/announce
udp://tracker.openbittorrent.com:80/announce
http://nemesis.1337x.org/announce
udp://tracker.publicbt.com:80/announce
http://genesis.1337x.org:1337/announce
udp://tracker.coppersurfer.tk:6969/announce
udp://glotorrents.pw:6969/announce
udp://tracker.istole.it:80/announce
udp://tracker.ccc.de:80/announce
udp://tracker.opentrackr.org:1337/announce
ĀµTorrent compatible trackers list

Locations

name
1337x
ThePirateBay
ExtraTorrent
BTjunkie
BTjunkie
BTjunkie
Fenopy
Torrent hash: d3a0c098de05397f6fd52bf0dbe5b900a2fcfec3

All Comments

audio
6/10
video
6/10
please, leave only comments related to that torrent
Sign In

audio: 9video: 8
Really Good Movie but Cam version
audio: 5video: 5
waste of time
audio: 6video: 6
Thanks
audio: 5video: 6
watchable :)
audio: 8video: 8
Thanks uploader! Great work.
audio: 2video: 8
ive found a gr8 quality kung fu panda 2 torrent awesome quality not caqm or ts dvdrip i duno where the uploader got it from but who gives its good !!!
http://torrents.thepiratebay.org/6525047/X-Men_First_Class_2011_R5_LiNE_READNFO_XViD-IMAGiNE.6525047.TPB.torrent
http://torrents.thepiratebay.org/6525047/X-Men_First_Class_2011_R5_LiNE_READNFO_XViD-IMAGiNE.6525047.TPB.torrent
madarchot where did u get dat?

Show More All
audio: 1video: 1
audio: 7video: 8

User Opinions

pumax1485, godslinux976, martinowp565, RoastedBun318, MadHatter334273, Sammo194, morsi6969186, Dimples23152, tbone2177113, ezbuzz8 ... And 192 more
Stalker15.85K, maisiaosiao516, the_kaiser66508, stricnin350, ROCKY1024289, andyvj251, rock2875223, dan1957165, fyilmaz00777, starrocks66 ... And 24 more
Report a bug Open chat