Kung Fu Panda 2 (2011) DVDRip NL gesproken DutchReleaseTeam

seeders: 7
leechers: 3
updated:
Added by DutchRelease13.03K in Movies > Animation
Torrent verified. Downloaded 934 times.

Summary:

Po and his friends fight to stop a peacock villain from conquering China with a deadly new weapon, but first the Dragon Warrior must come to terms with his past.

Written by Thhaque412.68K
Kung Fu Panda 2 (2011) DVDRip NL gesproken DutchReleaseTeam (Size: 706.65 MB)
  Kung Fu Panda 2 (2011) DVDRip NL gesproken DutchReleaseTeam [Animatie&Actie].avi 700.22 MB
  sample.avi 6.07 MB
  Koedje.png 115.78 KB
  Multimediacafe.png 105.06 KB
  screenshot1.jpg 44.93 KB
  screenshot2.jpg 37.81 KB
  screenshot3.jpg 36.63 KB
  screenshot4.jpg 20.7 KB
  DutchReleaseTeam NFO.txt 474 bytes
  Torrent downloaded from Demonoid.me.txt 46 bytes

Description

http://img689.imageshack.us/img689/2116/kungfuu.jpg


Verenigde Staten
Animatie / Actie

geregisseerd door Jennifer Yuh
met de stemmen van Jack Black, Angelina Jolie en Jackie Chan

Po's droom is uitgekomen nu hij De Drakenkrijger is en de Vredesvallei beschermt samen met zijn vrienden en andere Kung Fu meesters, De Vurige Vijf - Tijger, Kraan, Mantis, Viper en Aap. Zijn heerlijke leventje verandert volledig als er een nare tegenstander met een geheim wapen China probeert te veroveren en Kung Fu wilt uitroeien. Samen met De Vurige Vijf moet hij China doorkruisen om deze vijand te overmeesteren. Maar hoe kan Po een wapen ontmantelen dat Kung Fu vernietigt? Hij zal daarvoor eerst zijn mysterieuze verleden moeten ontrafelen om vervolgens de juiste krachten uit zichzelf te halen.





Screenshots:

http://img804.imageshack.us/img804/3296/screenshot1xx.jpg

http://img856.imageshack.us/img856/4057/screenshot2zjw.jpg

http://img804.imageshack.us/img804/6/screenshot3y.jpg

http://img268.imageshack.us/img268/4006/screenshot4gt.jpg




INFO;

Video
ID : 0
Format : MPEG-4 Visual
Format profile : Advanced Simple@L5
Format settings, BVOP : 1
Format settings, QPel : No
Format settings, GMC : No warppoints
Format settings, Matrix : Custom
Codec ID : XVID
Codec ID/Hint : XviD
Duration : 1h 30mn
Bit rate : 954 Kbps
Width : 672 pixels
Height : 288 pixels
Display aspect ratio : 2.35:1
Frame rate : 23.976 fps
Color space : YUV
Chroma subsampling : 4:2:0
Bit depth : 8 bits
Scan type : Progressive
Compression mode : Lossy
Bits/(Pixel*Frame) : 0.205
Stream size : 617 MiB (88%)
Writing library : XviD 64

Audio
ID : 1
Format : MPEG Audio
Format version : Version 1
Format profile : Layer 3
Mode : Joint stereo
Mode extension : MS Stereo
Codec ID : 55
Codec ID/Hint : MP3
Duration : 1h 30mn
Bit rate mode : Variable
Bit rate : 117 Kbps
Nominal bit rate : 128 Kbps
Channel(s) : 2 channels
Sampling rate : 48.0 KHz
Compression mode : Lossy
Stream size : 75.5 MiB (11%)
Alignment : Aligned on interleaves
Interleave, duration : 24 ms (0.58 video frame)
Interleave, preload duration : 157 ms
Writing library : LAME3.98r



http://www.imdb.com/title/tt1302011/
http://www.moviemeter.nl/film/71651




Deze film wordt u aangeboden door het DutchReleaseTeam.
Voor de reviews van de nieuwste films, muziek, series, games etc
ga dan eens naar http://www.hetmultimediacafe.be

DutchReleaseteam = Hardcoded Dutch Subs

Sharing Widget


Download torrent
706.65 MB
seeders:7
leechers:0
Kung Fu Panda 2 (2011) DVDRip NL gesproken DutchReleaseTeam



To share this torrent use the code below and insert it into comments, status messages, forum posts or your signature.

Torrent: Kung Fu Panda 2 (2011) DVDRip NL gesproken DutchReleaseTeam

Trackers

tracker name
http://tracker.torrentbay.to:6969/announce
udp://tracker.istole.it:80/announce
udp://tracker.openbittorrent.com:80/announce
udp://tracker.publicbt.com:80/announce
http://tracker2.istole.it:6969/announce
udp://glotorrents.pw:6969/announce
udp://tracker4.piratux.com:6969/announce
udp://coppersurfer.tk:6969/announce
udp://open.demonii.com:1337/announce
http://tracker.novalayer.org:6969/announce
ĀµTorrent compatible trackers list

Locations

name
KickassTorrents
ThePirateBay
ExtraTorrent
Limetorrents
Torrent hash: 9cd713ac9caa4e083bf0158c43272e031d667422

All Comments

audio
9/10
video
7/10
please, leave only comments related to that torrent
Sign In

audio: 9video: 9
Thank you very much;
audio: 9video: 8
erg leuk bedankt colega
audio: 9video: 8
bedanktbiggrinbiggrin
audio: 8video: 9
Prachtig beeld en redelijk goeie audio, bedankt! upload a.u.b. wat meer nl. animatiefilms! :)
audio: 9video: 8
dank je wel
the littl;e one is happy
:)
thanx
Superrrrrrrr, heerlijk voor de kids.... dank je wel....
gr. Melanie
slecht beeld maar verder is het wel oke
Show More All
audio: 10video: 10

User Opinions

Report a bug