Kundun(1997)-DVDRip-XviD ~ Smeet

seeders: 0
leechers: 1
updated:
Added in Movies
Torrent verified. Downloaded 128 times.

Summary:

From childhood to adulthood, Tibet's fourteenth Dalai Lama deals with Chinese oppression and other problems.

Written by DevilsReaper149.65K
Available in versions: 1080pHDRiPDVDRip
Kundun(1997)-DVDRip-XviD ~ Smeet (Size: 705.91 MB)
  Kundun(1997)-DVDRip-XviD ~ Smeet.avi 701.38 MB
  Kundun(1997)-DVDRip-XviD ~ Smeet.idx 51.79 KB
  Kundun(1997)-DVDRip-XviD ~ Smeet.sub 4.48 MB
  smeet.nfo 7.25 KB

Description

################## TM
##^^^^^^^^^^^^^^^^####
############## #^^^^^^^^^^^^^^^^^^^##
###### #### #########^^^^^# #^^^^^#########^^^^^#
###### ####### ###########^^^# #^^^^^^^^^^^^^#^^^^^#
####### ####### ############^^## #^^^^^^^^^^^^^#^^^^^#
################################# ############^^^###^^^^^^^^^^^^^#^^^^^#
############################################^#^^#^^^^^^^^^^^^^^^^#^^^^^#
#####################################^^^^^^^^#^^#########^^^#######^^^^#####
####################################^^^^^^^^^##^^^^^^^^^##^^#^^^^^^^^^^^^^^##
####################################^^^^^^^^^^###^^^^^^^^#^^#^^^^^^^^^^^^^^^##
######################### ##########^^^^^####^^##^^^^^^^^#^^#^^^^^^^^^^^^^^^##
####################################^########^^#^#########^^######^^^^^######
#############################################^^#^#^^^^^^^^^^^^^^^#^^^^^#
##############################################^#^#^^^^^^^^^^^^^^^#^^^^^#
##############################################^#^#^^^^^^^^^^^^^^^#^^^^^#
##################################^^^^^^^^^^#^#^^^^^^^^^^^^^^^#^^^^^#
############################################^^^#^##^^^^^^^^^^^^^^#^^^^^#
##############################################^#^^^###^^^^^^^^^^^#^^^^^#
#################################################^^^^#^^^^^^^^^^^#^^^^^#
###############################################^######^^^^^^^^^^^#^^^^^#
###################### ###### ##############^^^^^^^^^^^########^^^^^#
###################### ###### ##############^^##^^^^^^^# #^^^^^^#
###################### ###### ##################^^^^^^^# #^^^^^^#
############## ############### ######^^# ########
############## ############### ###
#############
MEANS QUALITY

=======================================================
= Kundun (1997) =
=======================================================
Based on the life story of His Holiness DALAI LAMA
|##############################################################################|
| |
|GENERAL INFORMATION |
|=================== |
|Format : AVI |
|Format/Info : Audio Video Interleave |
|Format profile : OpenDML |
|File size : 701 MiB |
|Duration : 2h 14mn |
|Overall bit rate : 731 Kbps |
|Language : English Source: DVD |
|SUBTITLE : English |
|GENRE : Biography | Drama | History | War |
|IMDB LINK : http://www.imdb.com/title/tt0119485/ |
|IMDB RATING : 7.1/10 |
|RIPPER : SMEET |
|##############################################################################|

|##############################################################################|
| |
|Video |
|Format : MPEG-4 Visual |
|Format settings, Matrix : Custom |
|Codec ID : XVID |
|Codec ID/Hint : XviD |
|Duration : 2h 14mns |
|Width : 640 pixels |
|Height : 240 pixels |
|Display aspect ratio : 2.35 |
|Frame rate : 23.976 fps |
|Resolution : 24 bits |
|Colorimetry : 4:2:0 |
|Scan type : Progressive |
|Bits/(Pixel*Frame) : 0.167 |
|Stream size : 591 MiB (84%) |
|Writing library : XviD 1.2.1 (UTC 2008-12-04) rter. |
|##############################################################################|
|Audio |
|Format : MPEG Audio |
|Format version : Version 1 |
|Format profile : Layer 3 |
|Codec ID : 55 |
|Codec ID/Hint : MP3 |
|Duration : 2h 14mn |
|Bit rate mode : Constant |
|Bit rate : 112 Kbps |
|Channel(s) : 2 channels |
|Sampling rate : 44.1 KHz |
|Resolution : 16 bits |
|Stream size : 107 MiB (15%) |
|Alignment : Aligned on interleaves |
|Interleave, duration : 906 ms (21.72 video frames) |
|Interleave, preload duration : 208 ms |
|Title : kundun~smeet T80 3_2ch 384Kbps DELAY 0msss |
|Writing library : LAME3.98r |
|Encoding settings : -m j -V 4 -q 2 -lowpass 15.6 -b 112 |
|Screenshot : http://tryimg.com/u/add011ec32.jpg |
| ALL MY RELEAASES AVAILABLE AT http://thepiratebay.org/user/bonkingph/ |
| |
|##############################################################################|

Sharing Widget


Download torrent
705.91 MB
seeders:0
leechers:1
Kundun(1997)-DVDRip-XviD ~ Smeet



To share this torrent use the code below and insert it into comments, status messages, forum posts or your signature.

Torrent: Kundun(1997)-DVDRip-XviD ~ Smeet

Trackers

tracker name
udp://tracker.openbittorrent.com:80/announce
udp://tracker.publicbt.com:80/announce
http://tracker.openbittorrent.com/announce
http://tracker.publicbt.com/announce
ĀµTorrent compatible trackers list

Locations

name
ThePirateBay
ExtraTorrent
Mininova
SumoTorrent
SumoTorrent
Torrent hash: 38a975957721764993a4e26012ed062fdef4a048

All Comments

audio
9/10
video
9/10
please, leave only comments related to that torrent
Sign In

Great movie definitely worth a watch
A9 V 9
Also its a hard to find movie so extra points for putting it up !
Thank you
audio: 8video: 8
Good movie. Thanks :)
audio: 8video: 7
OK quality for the size and source material, A8, V7. Thanks to the Uploader.
what a great movie,historically spot on.great sound and vision.thankyou my friend for a fab upload,your a star.
audio: 9video: 9
Very good considering the size. Good film too. Thanks. I would very much like to have a brrip or better, a high quality copy 4GB or bigger. If anyone has it please post it or if anyone know the link to such a torrent I would be gratefull.
audio: 10video: 10
Excellent,Thanks Downloader.
audio: 9video: 9
as a Buddhist I have always loved this movie thank you for the movie.
audio: 9video: 9
a master piece of Martin Scorsesse, made me rethink about the truth of history that our goverment told us. thank you very much for uploading.
Man, if you're an american, rethink everything that your goverment told you.

Show More All

User Opinions

Dr_M1895, Elvicio1199, devil5232356, orange16210, Jumpin Jehova190, threelittlebirds3189, dwbanks1145, Izzmon121, aminreleh83, nealo62 ... And 45 more
Report a bug