Kshanbhar Vishranti [2010] (Marathi)- Xvid - 1 CD DVDRip - ESubs

seeders: 6
leechers: 1
updated:
Added in Movies > Asian
Torrent verified. Downloaded 16 times.

Kshanbhar Vishranti [2010] (Marathi)- Xvid - 1 CD DVDRip - ESubs (Size: 696.34 MB)
  Kshanbhar Vishranti [2010] - Xvid - 1 CD DVDRip - MDG Exclusive.avi 696.2 MB
  Kshanbhar Vishranti.srt 136.79 KB

Description

▐█▌
██
▐█▌
■ ██
▄██ ███████████████ ▒ ███████████████ ▒ ████████ ███████░ ,
■▄ █▀█ █████ █████ █████ ██████ ███████ ██████▀ ▄
▀█▄██▓ ■ █████░ ████ ░ █████ ░ █████ ░ █████ ░ █████ ▄
███▓ ░███████████ ░ █████ ░ ██████ ░ █████ ████·░ █▄▄
▓██▀ ░█████ ▒████ ▒█████ ██████ █████ ████ ▄█
▐██▌ ░ ░░▒█████ █████ █████ ███████ █████ ████·░ ██
███ ░ █████████████ ░ ███████████████ ░ █████████████ ▄▐█▌
██▌ ░░ █████████████ ▒ ███████████████░ ▒ ██████████████ ░ ██▌
███ ░░ ▄ ███
▐██▌ ░░ BEST * DESI * UPLOADER ████▄
▓██▄ ▒░ ████ ▀■
▀███▄ ░ █ ▀▄▄ ▄▄████
▀████▄█▄▄██▄▄▄▄ ▀ ▀▀ ▄▄▄▄ ▀ ▄░▄ ▀▀ ▄▄██▀ ▄██▐█▀ ▄ ▀ ▄▄ ▀█ ▀█▓▓████
▄▓▀████▀█▀███▓▓████▐████████▓█████████▀ ▀ ▄▄▄▄▄████████▄ ▀ ▄█████
▀▀▓▓█▓██████████▄████▓▓▀█████▀█████████████████▓▓████████████

*******************************************************************************
* Kshanbhar Vishranti [2010] (Marathi)- Xvid - 1 CD DVDRip - ESubs [BDU] *
*******************************************************************************
-------------------------------------------------------------------------------
*General Information*
-------------------------------------------------------------------------------

Movie Name : Kshanbhar Vishranti [2010 - Maarathi]
Cast : Bharat Jadhav, Sachit Patil, Siddharth Jadhav,
Sonalee Kulkarni, Kadambari Kadam,
Shubhangi Gokhale,ayraj Nair,
Nitin Jadhav and Introducing Manava Naik,
Hemant Dhome, Maulik Bhat, Pooja Sawant
Producers : Maulik Bhat & Sandeep Shinde
Director & Story : Sachit Patil
Cinematography : Sanjay Jadhav
Music : Rishikesh Kamerkar
Choreography : Rajesh Bidave
Language : Marathi
Year : 2010

General
Name : Kshanbhar Vishranti
Format : AVI
Format/Info : Audio Video Interleave
Format profile : OpenDML
File size : 696 MiB
Duration : 2h 18mn
Overall bit rate : 704 Kbps
Writing application : AVI-Mux GUI 1.17.8.3


Video
ID : 0
Format : MPEG-4 Visual
Format profile : Advanced Simple@L5
Format settings, BVOP : Yes
Format settings, QPel : No
Format settings, GMC : No warppoints
Format settings, Matrix : Default (H.263)
Codec ID : XVID
Codec ID/Hint : XviD
Duration : 2h 18mn
Bit rate : 636 Kbps
Width : 640 pixels
Height : 272 pixels
Display aspect ratio : 2.35:1
Frame rate : 23.976 fps
Resolution : 8 bits
Colorimetry : 4:2:0
Scan type : Progressive
Bits/(Pixel*Frame) : 0.152
Stream size : 629 MiB (90%)
Writing library : XviD 1.2.1


Audio
ID : 1
Format : MPEG Audio
Format version : Version 2
Format profile : Layer 3
Mode : Joint stereo
Format_Settings_ModeExtension : MS Stereo
Codec ID : 55
Codec ID/Hint : MP3
Duration : 2h 18mn
Bit rate mode : Constant
Bit rate : 64.0 Kbps
Channel(s) : 2 channels
Sampling rate : 24.0 KHz
Stream size : 63.3 MiB (9%)
Alignment : Aligned on interleaves
Interleave, duration : 999 ms (23.96 video frames)
Interleave, preload duration : 216 ms
Title : Kshanbhar Vishranti T81 2_0ch 448Kbps DELAY 0ms
Writing library : LAME3.98r

-------------------------------------------------------------------------------
*Post Information*
-------------------------------------------------------------------------------
Posted by............: Best Desi Uploader

-------------------------------------------------------------------------------
*Releaser Notes*
-------------------------------------------------------------------------------
1. Please DON'T Forget For Seed.
2. Thank You!

-------------------------------------------------------------------------------

Sharing Widget


Download torrent
696.34 MB
seeders:6
leechers:1
Kshanbhar Vishranti [2010] (Marathi)- Xvid - 1 CD DVDRip - ESubs



To share this torrent use the code below and insert it into comments, status messages, forum posts or your signature.

Torrent: Kshanbhar Vishranti [2010] (...- Xvid - 1 CD DVDRip - ESubs

Trackers

tracker name
udp://tracker.istole.it:80/announce
udp://tracker.publicbt.com:80/announce
udp://tracker.1337x.org:80/announce
udp://tracker.openbittorrent.com:80/announce
udp://glotorrents.pw:6969/announce
udp://tracker.coppersurfer.tk:6969/announce
udp://fr33domtracker.h33t.com:3310/announce
µTorrent compatible trackers list

Locations

name
ThePirateBay
ExtraTorrent
Torrent hash: 82ed9c50f35af1e44df4ebd8f0210d4d1333d70b

All Comments

audio
9/10
video
9/10
please, leave only comments related to that torrent
Sign In

audio: 9video: 9
उत्तम चित्रपट आहे. एकदा नक्की पहावा. Keep seeding.
audio: 10video: 10
Thank You
audio: 8video: 8
thanks a ton
audio: 9video: 9
Mast Print... Nice to see marathi download of such a great quality in torrentz.....
Thank You
Sonalee Ur Looking Tooo Pretty
muth maralis ka??sali chi chut aanni gole mast aahet,,gand maru deil ka ha qustion aahe..chalyanchya style warun salichi chut khup lokani marali asel..

audio: 10video: 10
mast moviee...fresh songs...
Very Very Nice Movie....!
Very Very Nice Movie....!
Show More All

User Opinions

Report a bug