Kracker JackD 2003 PROPER DVDRip XviD-SPRiNTER

seeders: 0
leechers: 0
Added on Oct 29, 2011 in Movies
Torrent verified. Downloaded 0 times.

Summary:
No summary yet
Kracker JackD 2003 PROPER DVDRip XviD-SPRiNTER (Size: 711.16 MB)
  Speed.cd read me.txt 47 bytes
  sprinter-krackerjackd2003proper.nfo 7.01 KB
  sprinter-krackerjackd2003proper.rar 14.31 MB
  sprinter-krackerjackd2003proper.rar 14.31 MB
  sprinter-krackerjackd2003proper.rar 14.31 MB
  sprinter-krackerjackd2003proper.rar 14.31 MB
  sprinter-krackerjackd2003proper.rar 14.31 MB
  sprinter-krackerjackd2003proper.rar 14.31 MB
  sprinter-krackerjackd2003proper.rar 14.31 MB
  sprinter-krackerjackd2003proper.rar 14.31 MB
  sprinter-krackerjackd2003proper.rar 14.31 MB
  sprinter-krackerjackd2003proper.rar 14.31 MB
  sprinter-krackerjackd2003proper.rar 14.31 MB
  sprinter-krackerjackd2003proper.rar 14.31 MB
  sprinter-krackerjackd2003proper.rar 14.31 MB
  sprinter-krackerjackd2003proper.rar 14.31 MB
  sprinter-krackerjackd2003proper.rar 14.31 MB
  sprinter-krackerjackd2003proper.rar 14.31 MB
  sprinter-krackerjackd2003proper.rar 14.31 MB
  sprinter-krackerjackd2003proper.rar 14.31 MB
  sprinter-krackerjackd2003proper.rar 14.31 MB
  sprinter-krackerjackd2003proper.rar 14.31 MB
  sprinter-krackerjackd2003proper.rar 14.31 MB
  sprinter-krackerjackd2003proper.rar 14.31 MB
  sprinter-krackerjackd2003proper.rar 14.31 MB
  sprinter-krackerjackd2003proper.rar 14.31 MB
  sprinter-krackerjackd2003proper.rar 14.31 MB
  sprinter-krackerjackd2003proper.rar 14.31 MB
  sprinter-krackerjackd2003proper.rar 14.31 MB
  sprinter-krackerjackd2003proper.rar 14.31 MB
  And 23 files more
  Sample

Description

-
http://www.Speed.Cd fast and The Hottest Private Tracker on the net

Please Seed back to make the speed Faster!!!

------------------nfo--------------------------
-






























ARTiCHOKE
























SPRiNTER proudly presents...



Kracker.JackD.2003.PROPER.XviD.DVDRip-SPRiNTER

Date: 2011.10

http://www.imdb.com/title/tt0445025/





Release notes



previous release nuked for custom.quant.matrix.




News



We are currently looking for:
- Looking for talented xvid-encoders with time & addiction :)
- Suppliers who can provide pre-retail or retail dvds with decent upload!
- 50Mbit+ dump providers with 1TB+ free space.

sprinter@hush.com




Greetings




NTX FiCO HNR CiNEFiLE AEN HUMANiSM TASTE 0MNiDVD




Details



Format : AVI
Format/Info : Audio Video Interleave
File size : 699 MiB
Duration : 1h 35mn
Overall bit rate : 1 027 Kbps
Writing application : VirtualDubMod 1.5.10.2 (build 2540/release)
Writing library : VirtualDubMod build 2540/release

Video
ID : 0
Format : MPEG-4 Visual
Format profile : Advanced Simple@L5
Format settings, BVOP : 2
Format settings, QPel : No
Format settings, GMC : No warppoints
Format settings, Matrix : Default (H.263)
Codec ID : XVID
Codec ID/Hint : XviD
Duration : 1h 35mn
Bit rate : 856 Kbps
Width : 608 pixels
Height : 304 pixels
Display aspect ratio : 2.000
Frame rate : 23.976 fps
Color space : YUV
Chroma subsampling : 4:2:0
Bit depth : 8 bits
Scan type : Progressive
Compression mode : Lossy
Bits/(Pixel*Frame) : 0.193
Stream size : 583 MiB (83%)
Writing library : XviD 61

Audio
ID : 1
Format : MPEG Audio
Format version : Version 1
Format profile : Layer 3
Mode : Joint stereo
Codec ID : 55
Codec ID/Hint : MP3
Duration : 1h 35mn
Bit rate mode : Variable
Bit rate : 158 Kbps
Minimum bit rate : 128 Kbps
Channel(s) : 2 channels
Sampling rate : 48.0 KHz
Compression mode : Lossy
Stream size : 108 MiB (15%)
Alignment : Aligned on interleaves
Interleave, duration : 24 ms (0.58 video frame)
Interleave, preload duration : 407 ms
Writing library : LAME3.95
Encoding settings : -m j -V 4 -q 3 -lowpass 18 --vbr-old -b 128

Related Torrents

torrent name size files age seed leech

Sharing Widget


Download torrent
711.16 MB
seeders:0
leechers:0
Kracker JackD 2003 PROPER DVDRip XviD-SPRiNTER

Trackers

tracker name Status checked seeders leechers downloads
http://tracker.torrentbay.to:6969/announce
outdated 12 Nov 2012 - - -
http://tracker.openbittorrent.com/announce
outdated 29 Oct 2011 - - -
udp://tracker.publicbt.com:80/announce
outdated 29 Oct 2011 - - -
udp://tracker.openbittorrent.com:80/announce
outdated 29 Oct 2011 - - -
http://tracker.publicbt.com/announce
deleted 29 Oct 2011 - - -
µTorrent compatible trackers list

Locations

name
ThePirateBay
Limetorrents
Torrent hash: e2606a8d06fcedf32703ee1c0a660775e2385e81

All Comments

audio
0/10
video
0/10
please, leave only comments related to that torrent
or sign-in
Report a bug