Killers Creed 2013 DVDrip Xvid Ac3-MiLLENiUM

seeders: 0
leechers: 0
updated:
Added by Silmarillion615.69K in Movies
Torrent verified. Downloaded 115 times.

Summary:

Michelle, an assassin to a new breed of killers (DNA Hackers), finds she has greater obstacles in her life... Family.

Written by Man2016noW57.36K
Available in versions: 720pHDRiPDVDRipx264
Killers Creed 2013 DVDrip Xvid Ac3-MiLLENiUM (Size: 1.4 GB)
  Killers Creed 2013 DVDrip Xvid Ac3-MiLLENiUM.avi 1.38 GB
  sample.avi 23.16 MB
  Torrent downloaded from extratorrent.com.txt 353 bytes

Description

image


http://www.imdb.com/title/tt0438052/


In a futuristic world, Michelle lives everyday battling with DNA Hackers who use their skills to hack into people's bodies and kill them. She is an assassin, battling her past demons and trying to keep her younger and extroverted brother, Jackie, out of trouble. When Jackie gets involved in a petty crime of robbery, he propels himself into the world of DNA Hackers, Shylocks (Loan Sharks) and Gang Fights. Wanting the respect that the world has never given to him only makes it harder for Jackie to peel himself away from the underground trades, against the hopes of his sister, Michelle. Michelle always wanted to leave the city and lead a calm and quiet lifestyle. As emotions and gunfire get into the way, Michelle and Jackie soon find themselves battling between their lives and finding out that in an immoral world, love can still survive. Blood is thicker than water.

Michelle, an assassin to a new breed of killers (DNA Hackers), finds she has greater obstacles in her life... Family.



Director:
Pearry Reginald Teo

Writers:
Pearry Reginald Teo, Keith Collea

Stars:
Bai Ling, Alec Newman, Parry Shen

Genres:
Action | Sci-Fi

Country:
USA

Language:
English




General
Complete name : \Killers Creed 2013 DVDrip Xvid Ac3-MiLLENiUM.avi
Source : DVDR L-S [thanks] :wink:
Format : AVI
Format/Info : Audio Video Interleave
File size : 1.38 GiB
Duration : 1h 31mn
Overall bit rate : 2 156 Kbps
Writing application : VirtualDubMod 1.5.10.2 (build 2540/release)
Writing library : VirtualDubMod build 2540/release

Video
ID : 0
Format : MPEG-4 Visual
Format profile : Advanced Simple@L5
Format settings, BVOP : 2
Format settings, QPel : No
Format settings, GMC : No warppoints
Format settings, Matrix : Default (H.263)
Muxing mode : Packed bitstream
Codec ID : XVID
Codec ID/Hint : XviD
Duration : 1h 31mn
Bit rate : 1 698 Kbps
Width : 720 pixels
Height : 384 pixels
Display aspect ratio : 1.875
Frame rate : 25.000 fps
Color space : YUV
Chroma subsampling : 4:2:0
Bit depth : 8 bits
Scan type : Progressive
Compression mode : Lossy
Bits/(Pixel*Frame) : 0.246
Stream size : 1.09 GiB (79%)
Writing library : XviD 1.2.1 (UTC 2008-12-04)

Audio
ID : 1
Format : AC-3
Format/Info : Audio Coding 3
Mode extension : CM (complete main)
Codec ID : 2000
Duration : 1h 31mn
Bit rate mode : Constant
Bit rate : 448 Kbps
Channel(s) : 6 channels
Channel positions : Front: L C R, Side: L R, LFE
Sampling rate : 48.0 KHz
Bit depth : 16 bits
Compression mode : Lossy
Stream size : 294 MiB (21%)
Alignment : Split accross interleaves
Interleave, duration : 40 ms (1.00 video frame)
Interleave, preload duration : 500 ms



image
image
image
image
image

Related Torrents

torrent name size files age seed leech

Sharing Widget


Download torrent
1.4 GB
seeders:0
leechers:0
Killers Creed 2013 DVDrip Xvid Ac3-MiLLENiUM



To share this torrent use the code below and insert it into comments, status messages, forum posts or your signature.

Torrent: Killers Creed 2013 DVDrip Xvid Ac3-MiLLENiUM

Trackers

tracker name
udp://tracker.istole.it:80/announce
udp://open.demonii.com:1337/announce
udp://tracker.publicbt.com:80/announce
udp://tracker4.piratux.com:6969/announce
udp://coppersurfer.tk:6969/announce
udp://tracker.openbittorrent.com:80/announce
udp://glotorrents.pw:6969/announce
http://fr33dom.h33t.com:3310/announce
udp://fr33dom.h33t.com:3310/announce
udp://ipv4.tracker.harry.lu:80/announce
µTorrent compatible trackers list

Locations

name
KickassTorrents
ThePirateBay
ExtraTorrent
Torrent hash: BCF69D43D3A9708D20B5CD027D16E0C1CCA0D2B8

All Comments

audio
7/10
video
7/10
please, leave only comments related to that torrent
Sign In

audio: 9video: 9
Great Job UL, Thanks for your time an your share..keep up the Great Work!!..
audio: 6video: 6
thanks.
is it worth my time...?? in other words does she get naked lol..??
audio: 8video: 6
awesome quallity, but amature movie!!
thnx uploader for your effort! ;-))
audio: 7video: 7
tkz uploaderz n seederz ... tongue
is this The Gene Generation or Killers Creed?????
Show More All

User Opinions

chaseseith4403, pete-je713705, Mallyda13085, xHASTISx1534, M_R9755, gerdde717, timeke684, Cameroz350630, adrian78501, kbtb319 ... And 218 more
Ruffy525829, kmaccd21689, hardheaded11000, Tintin143919, kristi_viper598, ghostgovern585, fipa539, zoumpaios505, tassu100211, Spudnic205 ... And 10 more
Report a bug