Karas The Prophecy

seeders: 0
leechers: 0
updated: 2 days ago
Added on Feb 24, 2009 in Movies
Torrent verified. Downloaded 0 times.

Summary:
Tokyo - a city populated by both humans and by ghostly beings. They exist in both dimensions, seen and unseen: spirits, apparitions, demons. The balance between these two dimensions has long been upheld by the city's guardian raven Karas and his masters. But that balance has been thrown into disarray as Eko, a former Karas, has attempted to seize power and bring order to the streets through force. The entity Yurine, who represents the will of the people, stands in his way with her newly risen Karas. Now an ageless battle stretching across both dimensions and killing humans and spirits alike is in progress between the two sides and their armies.
Written by Ascetic_trip18.77K
report summary
Karas The Prophecy (Size: 735.78 MB)
  Karas The Prophecy.avi 735.78 MB

Description

General
Complete name : Karas The Prophecy
Year : 2005
Director : Kei'ichi Sato
Imdb : http://www.imdb.com/title/tt0809927/

Format : AVI
Format/Info : Audio Video Interleave
File size : 736 MiB
Duration : 1h 19mn
Overall bit rate : 1 288 Kbps
Writing application : Lavf52.17.0

Video
Format : AVC
Format/Info : Advanced Video Codec
Format profile : Baseline@L1.3
Format settings, CABAC : No
Format settings, ReFrames : 1 frame
Codec ID : H264
Duration : 1h 19mn
Bit rate : 829 Kbps
Nominal bit rate : 769 Kbps
Width : 704 pixels
Height : 400 pixels
Display aspect ratio : 16/9
Frame rate : 29.970 fps
Resolution : 24 bits
Colorimetry : 4:2:0
Scan type : Progressive
Bits/(Pixel*Frame) : 0.098
Stream size : 473 MiB (64%)
Writing library : x264 core 60

Audio
Format : AC-3
Format/Info : Audio Coding 3
Codec ID : 2000
Duration : 1h 19mn
Bit rate mode : Constant
Bit rate : 448 Kbps
Channel(s) : 6 channels
Channel positions : Front: L C R, Surround: L R, LFE
Sampling rate : 48.0 KHz
Stream size : 256 MiB (35%)
Alignment : Aligned on interleaves
Interleave, duration : 32 ms (0.96 video frame)

Plot
In a Japanese city haunted by nature spirits and demons, a secret
war is raging between the renegade demon Eko and a spectral warrior
known as the Karas. Eko has mechanized himself and his followers to
defend against the unearthly fury of the Karas; in addition to an
armored humanoid form, the Karas can transform into any of various
heavily armed and armored vehicles. Eko and his followers prefer to
live in the material realm in human form, but to continue doing so
they must feed on the fluids of human bodies. Their periodic feasts
result in massacres that leave only a single traumatized survivor;
these "inexplicable" tragedies are the obsession of a marginalized
police inspector whose daughter was the survivor of one such massacre.
Opposing Eko are the renegade demon Nue, who also lives in the material
world in human form but refuses to drink blood or take a mechanized form,
and Otoha, a former human who is summoned by the mysterious Yurine to
become the new Karas

Related Torrents

torrent name size files age seed leech

Sharing Widget


Download torrent
735.78 MB
seeders:0
leechers:0
Karas The Prophecy

Trackers

tracker name Status
http://tracker.openbittorrent.com/announce
outdated
µTorrent compatible trackers list

Locations

name
ThePirateBay
Mininova
ExtraTorrent
SumoTorrent
SumoTorrent
Torrentzap
Torrent hash: bc37e103b954a2baf9c03904604b449758d2dd63

All Comments

audio
9/10
video
8/10
please, leave only comments related to that torrent
or sign-in

1
dok8811.21K • 04 Sep 2013, 20:16
torrent downloaded
Show comment
audio: 10video: 7
English dub. Picture is not too good but watchable.
0
seedseeker861 • 11 Feb 2013, 19:33
torrent downloaded
Show comment
audio: 8video: 8
thank you
1
Baghuul815 • 23 Dec 2012, 06:19 Show comment
This is in English =(
0
thetruewarihi1380 • 04 Oct 2012, 00:31
torrent downloaded
Show comment
audio: 9video: 9
Awesome torrent,thank you uploader
0
Dracholy965 • 02 Jul 2012, 22:37
torrent downloaded
Show comment
Hard to find a good copy thanks :)
0
QMurk2040 • 04 Jun 2012, 22:59
torrent downloaded
Show comment
audio: 10video: 10
CLEAR AND ITS IN ENG COULD NOT UNDERSTAND MOVIE
0
anonymous • 31 Aug 2012, 09:23 Show comment
Thx 4 Replaying..

0
gnaahh510 • 15 May 2012, 11:06
torrent downloaded
Show comment
audio: 8video: 8
this is dubbed in English
0
anonymous • 21 Mar 2012, 23:35 Show comment
is this in English
0
anonymous • 27 Aug 2011, 19:07 Show comment
seeeeeeds please :)
Show More All
0
PhatKoala19.39K • 02 Feb 2013, 22:47
torrent downloaded
Show comment
audio: 10video: 10

User Opinions

xZulu7712, franga5440, AfricanWoolf2689, morfys2374, pumax1471, gnaahh510, daxxter402, reddot22178, anthony_gregory_dames144, trunxant27 ... And 20 more
Report a bug