Journey 2 The Mysterious Island 2012 TS READNFO XViD - INSPiRAL

seeders: 0
leechers: 0
updated:
Added in Movies
Torrent verified. Downloaded 10 times.

Summary:

Sean Anderson partners with his mom's husband on a mission to find his grandfather, who is thought to be missing on a mythical island.

Written by ROBBREDD6823.91K
Available in versions: 1080p720pHDRiPDVDRip
Journey 2 The Mysterious Island 2012 TS READNFO XViD - INSPiRAL (Size: 886.69 MB)
  Journey 2 The Mysterious Island 2012 TS READNFO XViD - INSPiRAL.avi 875.57 MB
  Journey 2 The Mysterious Island 2012 TS READNFO XViD - INSPiRAL.nfo 3.42 KB
  SAMPLE - INSPiRAL.avi 11.11 MB
  Torrent downloaded from AhaShare.com.txt 58 bytes
  Torrent downloaded from Demonoid.me.txt 46 bytes
  Torrent downloaded from extratorrent.com.txt 40 bytes
  torrent downloaded from H33T.com.txt 32 bytes

Description

http://img138.imageshack.us/img138/2692/journeyv.jpg

TITLE:

Journey 2 The Mysterious Island 2012 TS READNFO XViD - INSPiRAL

IMDB:

http://www.imdb.com/title/tt1397514/


SOURCES:

VIDEO - 26k and NoGRP THANKS
AUDIO - TAPE THANKS
SUBS - None Add

STATS:

Video
ID : 0
Format : MPEG-4 Visual
Format profile : Advanced Simple@L5
Format settings, BVOP : 2
Format settings, QPel : No
Format settings, GMC : No warppoints
Format settings, Matrix : Default (MPEG)
Muxing mode : Packed bitstream
Codec ID : XVID
Codec ID/Hint : XviD
Duration : 1h 25mn
Bit rate : 1 294 Kbps
Width : 640 pixels
Height : 352 pixels
Display aspect ratio : 16:9
Frame rate : 25.000 fps
Color space : YUV
Chroma subsampling : 4:2:0
Bit depth : 8 bits
Scan type : Progressive
Compression mode : Lossy
Bits/(Pixel*Frame) : 0.230
Stream size : 791 MiB (90%)
Writing library : XviD 64

Audio
ID : 1
Format : MPEG Audio
Format version : Version 1
Format profile : Layer 3
Mode : Joint stereo
Mode extension : MS Stereo
Codec ID : 55
Codec ID/Hint : MP3
Duration : 1h 25mn
Bit rate mode : Constant
Bit rate : 128 Kbps
Channel(s) : 2 channels
Sampling rate : 44.1 KHz
Compression mode : Lossy
Stream size : 78.3 MiB (9%)
Alignment : Split accross interleaves
Interleave, duration : 40 ms (1.00 video frame)
Interleave, preload duration : 500 ms


NOTES:

sources:
Video is same as our cam but audio is from TAPE ...thanks.Audio was nice and synced but contained some noise and also there
was several parts of repeated video without audio and audio repeats.

Workdone:
Took the audio cleaned it good and proper by using a hiss and noise removal and changed all the EQ bands and then remuxed to our
cam encode.....
Now considering we spent so much time doing this we decided to cut all the unwanted repeated scenes and audio overlaps from the first
14mins ....in total 9 cuts were needed and had too remove 29 secs of crap.
But now you have a complete version,without all them fack ups.......enjoy folks.

Frame 128965 (1:25:58.600) [ ] TAPES
Frame 128230 (1:25:29.200) [ ] INSPiRAL

Oh and this is not knocking TAPE as it was 26k that did all them errors in the first place and made it a PITA to sync for anyone.
But thought it was worth the extra time to correct it all.

SCREENS:

http://img835.imageshack.us/img835/5471/61599836.png
http://img13.imageshack.us/img13/7833/49625459.png
http://img543.imageshack.us/img543/9305/84272716.png
http://img259.imageshack.us/img259/1711/32095274.png
http://img444.imageshack.us/img444/5742/22554943.png
http://img37.imageshack.us/img37/5085/88668783.png

Related Torrents

torrent name size files age seed leech

Sharing Widget


Download torrent
886.69 MB
seeders:0
leechers:0
Journey 2 The Mysterious Island 2012 TS READNFO XViD - INSPiRAL



To share this torrent use the code below and insert it into comments, status messages, forum posts or your signature.

Torrent: Journey 2 The Mysterious Isl...2 TS READNFO XViD - INSPiRAL

Trackers

tracker name
http://tracker.pow7.com/announce
http://inferno.demonoid.me:3417/announce
http://tracker.ex.ua/announce
udp://tracker.publicbt.com:80/announce
udp://tracker.openbittorrent.com:80/announce
http://tracker.torrentbay.to:6969/announce
http://ipv4.tracker.harry.lu/announce
udp://tracker.1337x.org:80/announce
http://tracker.openbittorrent.com/announce
http://10.rarbg.com/announce
http://exodus.desync.com:6969/announce
http://fr33dom.h33t.com:3310/announce
http://tracker.publicbt.com/announce
µTorrent compatible trackers list

Locations

name
ThePirateBay
ExtraTorrent
Limetorrents
Torrent hash: 8570f6cebd85610cc118ef532ff9327e30494718

Top Comments

11
dixiedog105
audio: 5video: 5
thanku for the dl,good adventure film,copy is not so good,but its free.

All Comments

audio
6/10
video
5/10
please, leave only comments related to that torrent
Sign In

audio: 7video: 1
its a really bad cam and the audio dont match with the video
audio: 10video: 10
bad video audio 10 video 3
audio: 7video: 4
bad video
audio: 6video: 3
really bad quality
Show More All

User Opinions

Naskal6519, TeGiiGii4601, VJ19751421, drac1st1227, wettwilly915, malcmag874, blackplagze283, itHappens121, steelworkerdog74, gô333 ... And 301 more
sad_but_true2645, linerider692416, maja357914, Valter2865, peterboy11770, mouse22491, rom rom350, ramit_vyas139, bobmom78, tsogakos42 ... And 72 more
Report a bug