John Carter 2012 D TS ELEKTRI4KA

seeders: 0
leechers: 0
updated:
Added in Movies
Torrent verified. Downloaded 10 times.

  • add John Carter to bookmarks
  • Release date: 09 March 2012
  • Writers: Andrew Stanton (screenplay), Mark Andrews (screenplay), Michael Chabon (screenplay), Edgar Rice Burroughs (based on the story "A Princess of Mars" by)
  • Director: Andrew Stanton
  • Language: Russian
Summary:

Transplanted to Mars, a Civil War vet discovers a lush planet inhabited by 12-foot tall barbarians. Finding himself a prisoner of these creatures, he escapes, only to encounter a princess who is in desperate need of a savior.

Written by Thhaque412.68K
Available in versions: 1080p720pBDRipHDRiPDVDRipx265TeleSync
John Carter 2012 D TS ELEKTRI4KA (Size: 2.05 GB)
  John.Carter.2012.D.TS.ELEKTRI4KA.avi 2.05 GB
  fhgdh.nfo 144 bytes

Description

General
Complete name : John.Carter.2012.D.TS.ELEKTRI4KA
Format : AVI
Format/Info : Audio Video Interleave
File size : 2.05 GiB
Duration : 1h 56mn
Overall bit rate : 2 519 Kbps
Writing application : VirtualDubMod 1.5.10.2 (build 2540/release)
Writing library : VirtualDubMod build 2540/release

Video
ID : 0
Format : MPEG-4 Visual
Format profile : Advanced Simple@L5
Format settings, BVOP : 2
Format settings, QPel : No
Format settings, GMC : No warppoints
Format settings, Matrix : Default (MPEG)
Muxing mode : Packed bitstream
Codec ID : XVID
Codec ID/Hint : XviD
Duration : 1h 56mn
Bit rate : 2 321 Kbps
Width : 720 pixels
Height : 352 pixels
Display aspect ratio : 2.045
Frame rate : 25.000 fps
Color space : YUV
Chroma subsampling : 4:2:0
Bit depth : 8 bits
Scan type : Progressive
Compression mode : Lossy
Bits/(Pixel*Frame) : 0.350
Stream size : 1.81 GiB (88%)
Writing library : XviD 1.2.1 (UTC 2008-12-04)

Audio
ID : 1
Format : AC-3
Format/Info : Audio Coding 3
Mode extension : CM (complete main)
Codec ID : 2000
Duration : 1h 56mn
Bit rate mode : Constant
Bit rate : 192 Kbps
Channel(s) : 2 channels
Channel positions : Front: L R
Sampling rate : 48.0 KHz
Bit depth : 16 bits
Compression mode : Lossy
Stream size : 160 MiB (8%)
Alignment : Split accross interleaves

Related Torrents

torrent name size files age seed leech

Sharing Widget


Download torrent
2.05 GB
seeders:0
leechers:0
John Carter 2012 D TS ELEKTRI4KA



To share this torrent use the code below and insert it into comments, status messages, forum posts or your signature.

Torrent: John Carter 2012 D TS ELEKTRI4KA

Trackers

tracker name
udp://9.rarbg.com:2710/announce
udp://tracker.1337x.org:80/announce
http://10.rarbg.com/announce
udp://tracker.publicbt.com:80/announce
udp://tracker.istole.it:80/announce
http://tracker.openbittorrent.com/announce
udp://tracker.openbittorrent.com:80/announce
udp://11.rarbg.com:80/announce
http://exodus.desync.com:6969/announce
http://tracker.publicbt.com/announce
udp://15.rarbg.com:27015/announce
ĀµTorrent compatible trackers list

Locations

name
ThePirateBay
Torrent hash: d31bf1b0a7ab26e95cfbf8f9193138313a3aad5c

All Comments

audio
1/10
video
1/10
please, leave only comments related to that torrent
Sign In

audio: 1video: 1
Horrible image!
Do not start from the beginning|
Audio unusefull!
bullsh its great
audio: 1video: 1
worst ever its a to dark for a cam:(
audio: 10video: 10

User Opinions

Report a bug