James Bond 007-Golden Eye 1995[DvdRip]Dual Audio[Eng-Hindi]

seeders: 21
leechers: 1
updated:
Added in Movies > Dubbed Movies
Torrent verified. Downloaded 767 times.

  • add GoldenEye to bookmarks
  • Release date: 13 November 1995
  • Writers: Ian Fleming (characters), Michael France (story), Jeffrey Caine (screenplay), Bruce Feirstein (screenplay)
  • Director: Martin Campbell
  • Languages: English , Hindi
Summary:

James Bond teams up with the lone survivor of a destroyed Russian research center to stop the hijacking of a nuclear space weapon by a fellow agent believed to be dead.

Written by Valkyrie95.75K
Available in versions: 1080p720pBlu-RayBDRipHDRiPDVDRip
James Bond 007-Golden Eye 1995[DvdRip]Dual Audio[Eng-Hindi] (Size: 871.23 MB)
  James.Bond.007-Golden.Eye.1995[DvdRip]Dual.Audio[Eng-Hindi].mkv 871.23 MB

Description

HD DESI ROCKERS GROUP RELEASES


INFO:

Title..................: James Bond "GoldenEye" Pierce Brosnan
Year...................: 1995
Genre..................: Spy | Action
Directer...............: Martin Campbell
Run time...............: 2h 9mn 46sec
size ..................: 871 MB
Languages..............: English.Hindi

___________________________________________________________________________

Video

Format : MKV
Duration : 2h 9mn 46sec
Display aspect ratio : 2.25:1
Resolution : 720*320
Bit Rate : 939 Kbps
Stream size : 497 MiB (58%)
_______________________________________________________________________________


Audio #1 :English
ID : 1
Format : MPEG 1 Layer 3
Duration : 2h 9mn 46sec
Bit rate mode : Constant
Bit rate : 128 Kbps
Channel(s) : 2 channels
Channel positions : Front: L R
Sampling rate : 48.0 KHz
Stream size : 119 MiB (14%)

____________________________________________________________________________


Audio #2 :Hindi
ID : 2
Format : MPEG 1 Layer 3
Duration : 2h 9mn 46sec
Bit rate mode : Constant
Bit rate : 256 Kbps
Channel(s) : 2 channels
Channel positions : Front: L R
Sampling rate : 44.1 KHz
Stream size : 238 MiB (28%)
__________________________________________________________________________



Seeding at 2:00 AM ISt - 8:00 AM ISt
Please wait during seeding
Plz seed after download
Thankyou...


Screens

http://img34.imageshack.us/img34/7110/13945537.jpg
http://img9.imageshack.us/img9/5971/73445811.jpg
http://img80.imageshack.us/img80/103/69698819.jpg
http://img34.imageshack.us/img34/7420/67525227.jpg
http://img535.imageshack.us/img535/3166/95091542.jpg
http://img31.imageshack.us/img31/6342/32592820.jpg
http://img155.imageshack.us/img155/9955/84402741.jpg
http://img571.imageshack.us/img571/2274/97576033.jpg

Sharing Widget


Download torrent
871.23 MB
seeders:26
leechers:2
James Bond 007-Golden Eye 1995[DvdRip]Dual Audio[Eng-Hindi]



To share this torrent use the code below and insert it into comments, status messages, forum posts or your signature.

Torrent: James Bond 007-Golden Eye 1995[DvdRip]Dual Audio[Eng-Hindi]

Trackers

tracker name
udp://open.demonii.com:1337/announce
udp://tracker.openbittorrent.com:80/announce
http://pow7.com/announce
udp://tracker.istole.it:80/announce
http://tracker.ex.ua/announce
udp://tracker.publicbt.com:80/announce
http://tracker.torrentbay.to:6969/announce
http://photodiode.mine.nu/announce
http://genesis.1337x.org:1337/announce
http://tracker.bitreactor.to:2710/announce
ĀµTorrent compatible trackers list

Locations

name
ThePirateBay
ExtraTorrent
1337x
Torrent hash: ae1a21985e7fe9d619a3cfa7f18897f48e52a998

All Comments

audio
8/10
video
8/10
please, leave only comments related to that torrent
Sign In

audio: 8video: 8
slow download but thanks for share
audio: 9video: 9
Nice one.
audio: 10video: 10
yeah....... good movie
audio: 3video: 7
Atrocious image quality.
audio: 9video: 9
THANK FOR UPLOAD
NICE MOVIE
NOW SEEDINGsmilesmilesmilesmile
audio: 9video: 9
works great thanks!
Show More All

User Opinions

RustCohle5982, BuFu2544, vzssute042133, Daaniyaal1328, shebin491, foryou483, killdoubt253, spicy123185, Jupiteroriny147, shahid865 ... And 196 more
coppieking4544, djhype660, Mujeeb95397, spartacus1991314, Tarzarddd30, Mat888821, timie2924
Report a bug