IQ 1994

seeders: 0
leechers: 0
updated:
Added in Movies
Torrent verified. Downloaded 24 times.

Summary:

Albert Einstein helps a young man who's in love with Einstein's niece to catch her attention by pretending temporarily to be a great physicist.

Written by Pahly210K
Available in versions: 720pDVDDVDRip
IQ 1994 (Size: 465.22 MB)
  IQ 1994.avi 465.22 MB
  IQ 1994.txt 2.05 KB

Description


Edward Walters, an auto mechanic, falls for the intelligent and beautiful Catherine Boyd. It is love at first sight. There is however a problem, she's engaged to jerk James Moreland. Fortunately, Catherine's uncle likes Ed, and with his friends they scheme to make Catherine fall for Ed. The comedy in this movie stems from the fact that Catherine's uncle is none other than Albert Einstein, who's portrayed as a fun loving genius, as are his mischievous colleagues, Nathan, Kurt and Boris.





Format : AVI

Format/Info : Audio Video Interleave

File size : 465 MiB

Duration : 1h 31mn

Overall bit rate : 708 Kbps

Writing application : MEncoder SVN-r29352(20090610-gcc4.3.3)

Writing library : MPlayer



Video

Format : avc1

Codec ID : avc1

Duration : 1h 31mn

Bit rate : 568 Kbps

Width : 480 pixels

Height : 360 pixels

Display aspect ratio : 4:3

Frame rate : 25.000 fps

Bits/(Pixel*Frame) : 0.131

Stream size : 373 MiB (80%)



Audio

ID : 1

Format : MPEG Audio

Format version : Version 1

Format profile : Layer 3

Mode : Joint stereo

Format_Settings_ModeExtension : MS Stereo

Codec ID : 55

Codec ID/Hint : MP3

Duration : 1h 31mn

Bit rate mode : Constant

Bit rate : 128 Kbps

Channel(s) : 2 channels

Sampling rate : 44.1 KHz

Stream size : 84.1 MiB (18%)

Alignment : Aligned on interleaves

Interleave, duration : 26 ms (0.65 video frame)

Interleave, preload duration : 522 ms






Sharing Widget


Download torrent
465.22 MB
seeders:0
leechers:0
IQ 1994



To share this torrent use the code below and insert it into comments, status messages, forum posts or your signature.

Torrent: IQ 1994

Trackers

tracker name
udp://tracker.openbittorrent.com:80/announce
udp://tracker.publicbt.com:80/announce
http://tracker.ex.ua/announce
http://genesis.1337x.org:1337/announce
http://nemesis.1337x.org/announce
http://tracker.xpear.de:6969/announce
http://11.rarbg.com/announce
http://tracker.openbittorrent.com/announce
http://10.rarbg.com/announce
http://pow7.com/announce
http://tracker.torrentbay.to:6969/announce
http://tracker.ilibr.org:6969/announce
http://tracker.publicbt.com/announce
http://fr33dom.h33t.com:3310/announce
http://www.zen7.ph/track_1/announce.php
http://tracker.bitreactor.to:2710/announce
http://9.rarbg.com:2710/announce
http://www.zen7.ph/track/announce.php
µTorrent compatible trackers list

Locations

name
1337x
1337x
Torrent hash: fe1c5d63e3c25662822706a94b353f5bc9e0bc3c

All Comments

audio
7/10
video
6/10
please, leave only comments related to that torrent
Sign In

audio: 6video: 6
Thanks
audio: 9video: 7
480*360. OK rip. Very odd resolution. Other rips out there are 4 minutes longer. Good audio.
I'm having a problem, when i download it, I open the file and play the .avi but when it plays, it just plays the audio of the movie.

audio: 7video: 7
a,v: 7/10 ..m:9/10
thx for the nice torrent^_^

User Opinions

Itzy52.97K, CDStJohn9158, rogerklotz5251, methos2371225, chandroth1122, gissssse_99424, BrendinDP385, jct7336118, ammisra49, faybela44 ... And 2 more
Report a bug