Inspector_Lewis_Fearful_Symmetry_S06_E03_(Masterpiece Mystery)_720p.HDTV.x264_TTL

seeders: 0
leechers: 0
Added on Jul 24, 2012 by conired7514 in TV
Torrent verified. Downloaded 0 times.

  • View all George Gently episodes
  • Episode: S06E03
  • IMDb link: 1430509
  • Original run: 08 April 2007 — Present
  • Summary:
    Inspector George Gently (titled George Gently for the pilot and first series) is a British television series produced by Company Pictures for BBC One, set in the 1960's and based on the Inspector Gently novels by Alan Hunter. The series features Martin Shaw as the eponymous inspector, Lee Ingleby as Detective Sergeant John Bacchus. The Pilot to the series was first aired in april 2007.
    Written by RedBaron5827.32K
    report summary
Inspector_Lewis_Fearful_Symmetry_S06_E03_(Masterpiece Mystery)_720p.HDTV.x264_TTL (Size: 1.81 GB)
  Inspector_Lewis_Fearful_Symmetry_S06_E03_(Masterpiece Mystery)_720p.HDTV.x264_TTL-1.mkv 1.76 GB
  Inspector_Lewis_Fearful_Symmetry_S06_E03_(Masterpiece Mystery)_(Credits)_720p.HDTV.x264_TTL-1.mkv 22.92 MB
  Inspector_Lewis_Fearful_Symmetry_(Masterpiece Mystery)_(Tonight)_720p.HDTV.x264_TTL-1.mkv 13.55 MB
  Inspector_Lewis_(Masterpiece Mystery)_(Next Time)_720p.HDTV.x264_TTL-1.mkv 11.07 MB
  Torrent downloaded from Demonoid%2eme.txt 46 bytes

Description

This is from the American PBS debut on 7-22-2012.



Kevin Whately returns as Inspector Lewis teamed with his cool, cerebral partner Detective

Sergeant Hathaway (Laurence Fox). Lewis, the former working-class foil to the erudite

Detective Inspector Morse, tackles murder and mayhem with the help of Hathaway.

In the all-new 2012 season, Lewis and Hathaway tackle four cases in the seemingly perfect

academic haven of Oxford: The Soul of Genius (July 8), Generation of Vipers (July 15),

Fearful Symmetry (July 22) and The Indelible Stain (July 29). Guest stars include Toby

Stephens (Jane Eyre), James Fleet (Little Dorrit) and Celia Imrie (Cranford).

Also, don't miss the following encore presentations from Inspector Lewis, Series IV: The

Mind Has Mountains (Aug 26) and The Gift of Promise (Sept. 2).










All the extras are in separate files.









Enjoy and please share.







TTLTTLTTLTTLTTLTTLTTLTTLTTLTTLTTLTTLTTLTTLTTLTTLTTLTTLTTLTTL





Inspector_Lewis_Fearful_Symmetry_S06_E03_(Masterpiece Mystery)_720p.HDTV.x264_TTL.mkv
Format : Matroska
File size : 1.76 GiB
Duration : 1h 21mn
Overall bit rate : 3 112 Kbps
Writing application : HandBrake 0.9.5
Writing library : libmkv 0.6.4.1

Video
ID : 1
Format : AVC
Format/Info : Advanced Video Codec
Format profile : High@L3.1
Format settings, CABAC : Yes
Format settings, ReFrames : 4 frames
Muxing mode : Container profile=Unknown@3.1
Codec ID : V_MPEG4/ISO/AVC
Duration : 1h 21mn
Bit rate : 2 827 Kbps
Nominal bit rate : 2 883 Kbps
Width : 1 280 pixels
Height : 720 pixels
Display aspect ratio : 16:9
Frame rate mode : Variable
Frame rate : 29.970 fps
Resolution : 8 bits
Colorimetry : 4:2:0
Scan type : Progressive
Bits/(Pixel*Frame) : 0.102
Stream size : 1.60 GiB (91%)
Writing library : x264 core 112

Audio
ID : 2
Format : AC-3
Format/Info : Audio Coding 3
Codec ID : A_AC3
Duration : 1h 21mn
Bit rate mode : Constant
Bit rate : 224 Kbps
Channel(s) : 2 channels
Channel positions : L R
Sampling rate : 48.0 KHz
Stream size : 130 MiB (7%)

Sharing Widget


Download torrent
1.81 GB
seeders:0
leechers:0
Inspector_Lewis_Fearful_Symmetry_S06_E03_(Masterpiece Mystery)_720p.HDTV.x264_TTL

Trackers

tracker name Status checked seeders leechers downloads
http://tracker.publicbits.com/announce
outdated 07 Sep 2012 - - -
http://pow7.com/announce
outdated 07 Sep 2012 - - -
udp://tracker.openbittorrent.com:80/announce
outdated 07 Sep 2012 - - -
http://tracker.istole.it/announce
outdated 07 Sep 2012 - - -
udp://tracker.istole.it:80/announce
outdated 07 Sep 2012 - - -
udp://tracker.1337x.org:80/announce
outdated 07 Sep 2012 - - -
udp://tracker.publicbt.com:80/announce
outdated 07 Sep 2012 - - -
http://exodus.desync.com:6969/announce
blocked 07 Sep 2012 - - -
http://tracker.publicbt.com/announce
deleted 07 Sep 2012 - - -
udp://fr33domtracker.h33t.com:3310/announce
deleted 07 Sep 2012 - - -
µTorrent compatible trackers list

Locations

name
KickassTorrents
Torrent hash: 23C3CFDB26458E9FD16C14D8A7198714A7BB92CD

All Comments

audio
0/10
video
0/10
please, leave only comments related to that torrent
or sign-in

Report a bug