In.the.Land.of.Blood.and.Honey.2011

seeders: 6
leechers: 0
updated:
Added by legend66.56K in Movies
Torrent verified. Downloaded 339 times.

Summary:

During the Bosnian War, Danijel, a soldier fighting for the Serbs, re-encounters Ajla, a Bosnian who's now a captive in his camp he oversees. Their once promising connection has become ambiguous as their motives have changed.

Written by Man2016noW57.43K
Available in versions: DVDRipx264Screener
In.the.Land.of.Blood.and.Honey.2011 (Size: 797.49 MB)
  In The Land Of Blood And Honey.avi 797.49 MB
  Torrent downloaded from extratorrent.com.txt 353 bytes

Description








image

========================================================





Release Name: In.the.Land.of.Blood.and.Honey.2011.VODRip-PA



Release Date: 28/02/2012





IMdb: http://www.imdb.com/title/tt1714209/



Language: English



Type: VODRip



Format: XViD avi



Size: 816MB



Source: PA's Own -- many thanks m8 ...you're a legend



========================================================



Format : AVI

Format/Info : Audio Video Interleave

File size : 797 MiB

Duration : 2h 7mn

Overall bit rate : 874 Kbps

Writing application : VirtualDubMod 1.5.10.2 (build 2542/release)

Writing library : VirtualDubMod build 2542/release



Video

ID : 0

Format : MPEG-4 Visual

Format profile : Advanced Simple@L5

Format settings, BVOP : 1

Format settings, QPel : No

Format settings, GMC : No warppoints

Format settings, Matrix : Default (H.263)

Muxing mode : Packed bitstream

Codec ID : XVID

Codec ID/Hint : XviD

Duration : 2h 7mn

Bit rate : 737 Kbps

Width : 704 pixels

Height : 296 pixels

Display aspect ratio : 2.40:1

Frame rate : 23.976 fps

Color space : YUV

Chroma subsampling : 4:2:0

Bit depth : 8 bits

Scan type : Progressive

Compression mode : Lossy

Bits/(Pixel*Frame) : 0.147

Stream size : 672 MiB (84%)

Writing library : XviD 62



Audio

ID : 1

Format : MPEG Audio

Format version : Version 1

Format profile : Layer 3

Mode : Joint stereo

Mode extension : MS Stereo

Codec ID : 55

Codec ID/Hint : MP3

Duration : 2h 7mn

Bit rate mode : Constant

Bit rate : 128 Kbps

Channel(s) : 2 channels

Sampling rate : 44.1 KHz

Compression mode : Lossy

Stream size : 117 MiB (15%)

Alignment : Split accross interleaves

Interleave, duration : 42 ms (1.00 video frame)

Interleave, preload duration : 500 ms

Writing library : LAME3.98.2



========================================================





PLOT:

Set against the backdrop of the Bosnian War that tore the Balkan region apart in the 1990s, In the Land of



Blood and Honey tells the story of Danijel and Ajla, two people from different sides of a brutal ethnic conflict.



Danijel, a soldier fighting for the Serbs, and Ajla, a Bosnian held captive in the camp he oversees, knew each other



before the war, and could have found love with each other. But as the armed conflict takes hold of their lives, their



relationship grows darker...



NOTES:

First decent quality rip of this 'On Demand' movie from PA's own source for y'all.

...'In the Land of Blood and Honey' is written and directed by Angelina Jolie.

[This rls is English language audio].



As always - Respect to all the loyal PA crew .....you know who u are





LOOKING FOR:

...Anything 'Fresh as F*ck'



Off Internal so Enjoy All.......!!



========================================================





Screens:


image
image
image
image
image

Related Torrents

torrent name size files age seed leech

Sharing Widget


Download torrent
797.49 MB
seeders:6
leechers:0
In.the.Land.of.Blood.and.Honey.2011



To share this torrent use the code below and insert it into comments, status messages, forum posts or your signature.

Torrent: In.the.Land.of.Blood.and.Honey.2011

Trackers

tracker name
http://tracker.ex.ua/announce
udp://tracker.openbittorrent.com:80/announce
http://tracker.pow7.com/announce
udp://tracker.publicbt.com:80/announce
http://tracker.openbittorrent.com/announce
http://10.rarbg.com/announce
udp://tracker.1337x.org:80/announce
http://ipv4.tracker.harry.lu/announce
http://tracker.torrentbay.to:6969/announce
http://exodus.desync.com:6969/announce
http://fr33dom.h33t.com:3310/announce
http://tracker.publicbt.com/announce
udp://tracker.novalayer.org:6969/announce
µTorrent compatible trackers list

Locations

name
KickassTorrents
ExtraTorrent
ThePirateBay
Limetorrents
Torrent hash: 4B1D55470A1EEE23C6886C52D3D3042D9A39274D

All Comments

audio
8/10
video
8/10
please, leave only comments related to that torrent
Sign In

Comment is deleted
Nataknem te na kurac i familju

audio: 10video: 10
very fast download...after seeing unbroken went looking for this movie...Excellent ...audio and video brilliant
Boring but interested (Y)
Such a fast download! thanks a lot [:Qboo
audio: 8video: 8
Superb
audio: 8video: 8
thanx
Show More All

User Opinions

Naskal6587, q8djent6429, Ha_Nif5607, Fireman58444525, speedtriplll2637, heldens32371, Moglee1626, dandanbob1534, ninotchka007987, holyfool268 ... And 355 more
Armoreska5543, dougdrink2105, hope468, msdogru332, Aaronj6699133, njirri66, lineaman65, Athit55, knigchaf5, sajber0114 ... And 20 more
Report a bug Open chat