Advertising (remove)

I Wanna Cum Inside Your Mom 34.XXX.DVDRip

seeders: 0
leechers: 0
updated:
Added by DEMONLORD40001661 in XXX > Video
Torrent verified. Downloaded 10 times.

I Wanna Cum Inside Your Mom 34.XXX.DVDRip (Size: 1.3 GB)
  I Wanna Cum Inside Your Mom 34.avi 1.3 GB
Advertising (remove)

Description

https://s1231.photobucket.co...onlord4000/Uploading/34f.jpg

https://s1231.photobucket.co...onlord4000/Uploading/34b.jpg

URL: http://www.cduniverse.com/pr...sp?pid=8769203&style=ice

I Wanna Cum Inside Your Mom 34.XXX.DVDRip

Studio: White Ghetto Films

Discs: 1

Release Date: Jun 15, 2012

Category: All Sex, HD - Shot In High Def, Older, MILF / Cougar, White Ghetto Films' I Wanna Cum Inside Your Mom Series

Starring: Raquel Sieb, Kira, Kate Faucett, Monroe Valentino

Nasty Neighborhood MILFs!

100% Deep Throating! Titty Fucking! Pussy Plowing! Messy Creampies!

Most of my buddies moms are OK looking, nothing special, but Larry's mom is something else, shes fucking awesome! She looks like a magazine cover girl, the kind where you see her again as the centerfold with her legs spread and an inviting smile on her face. That's the way she looks at me, and I think it means only one thing, she wants my big cock up her pussy pumping loads of hot cum. I'm glad Larry's got a late night job, because buddy, I'm going to cum inside your mom tonight!

General
Complete name : I Wanna Cum Inside Your Mom 34.avi
Format : AVI
Format/Info : Audio Video Interleave
Format profile : OpenDML
File size : 1.30 GiB
Duration : 1h 36mn
Overall bit rate : 1 937 Kbps

Video
ID : 0
Format : MPEG-4 Visual
Format profile : Advanced Simple@L5
Format settings, BVOP : 2
Format settings, QPel : No
Format settings, GMC : No warppoints
Format settings, Matrix : Default (MPEG)
Codec ID : XVID
Codec ID/Hint : XviD
Duration : 1h 36mn
Bit rate : 1 793 Kbps
Width : 720 pixels
Height : 404 pixels
Display aspect ratio : 16:9
Frame rate : 29.970 fps
Color space : YUV
Chroma subsampling : 4:2:0
Bit depth : 8 bits
Scan type : Progressive
Compression mode : Lossy
Bits/(Pixel*Frame) : 0.206
Stream size : 1.21 GiB (93%)
Writing library : XviD 1.2.1 (UTC 2008-12-04)

Audio
ID : 1
Format : MPEG Audio
Format version : Version 1
Format profile : Layer 3
Codec ID : 55
Codec ID/Hint : MP3
Duration : 1h 36mn
Bit rate mode : Constant
Bit rate : 128 Kbps
Channel(s) : 2 channels
Sampling rate : 48.0 KHz
Compression mode : Lossy
Delay relative to video : 33ms
Stream size : 88.2 MiB (7%)
Alignment : Aligned on interleaves
Interleave, duration : 24 ms (0.72 video frame)
Interleave, preload duration : 504 ms
Writing library : LAME3.98.4

https://s1231.photobucket.co...i_thumbs_20120915_201344.jpg

Related Torrents

torrent name size files age seed leech

Sharing Widget


Download torrent
1.3 GB
seeders:0
leechers:0
I Wanna Cum Inside Your Mom 34.XXX.DVDRip



To share this torrent use the code below and insert it into comments, status messages, forum posts or your signature.

Torrent: I Wanna Cum Inside Your Mom 34.XXX.DVDRip

Trackers

tracker name
http://tracker.istole.it/announce
udp://tracker.openbittorrent.com:80/announce
udp://tracker.1337x.org:80/announce
udp://tracker.publicbt.com:80/announce
http://tracker.torrentbay.to:6969/announce
udp://tracker.istole.it:80/announce
udp://11.rarbg.com:80/announce
http://exodus.desync.com:6969/announce
http://tracker.publicbt.com/announce
udp://fr33domtracker.h33t.com:3310/announce
µTorrent compatible trackers list

Locations

name
KickassTorrents
Torrent hash: DB3B0D09F22DB062494925CDD343334F6F211181

All Comments

audio
0/10
video
0/10
please, leave only comments related to that torrent
Sign In


User Opinions

Report a bug Open chat