Hush Hush, Sweet Charlotte (1964) Bette Davis Eng

seeders: 3
leechers: 0
Added in Movies
Downloaded 61 times.


An aging, reclusive southern belle, plagued by a horrifying family secret, descends into madness after the arrival of a lost relative.

Written by Anette14149.92K
Available in versions: 720pDVDRip
Hush Hush, Sweet Charlotte (1964) Bette Davis Eng (Size: 806.27 MB)
  FAQ README.txt 4.45 KB
  Hush...Hush, Sweet Charlotte (1964) Bette Davis Eng.avi 806.27 MB
  Torrent downloaded from 47 bytes


An unusually long pre-credits sequence establishes the roots of faded Southern belle Charlotte's (Bette Davis) insanity;
she'd been witness to the dismemberment murder of her fiance (Bruce Dern) and the suicide of the murderer, her own
father (Victor Buono). Years later, Charlotte remains a recluse in her decaying southern mansion, zealously guarding the
secret of her father's guilt; she is cared for by her slatternly housekeeper (Agnes Moorehead). When her house is
targeted for demolition, Charlotte fears that this will uncover her lover's body parts and thus confirm that her father
was a murderer. She desperately summons her seemingly sweet-tempered cousin Miriam (Olivia De Havilland) to help her
fight off the house's destruction. Miriam brings along the family doctor (Joseph Cotten) to calm Charlotte's frayed
nerves. When Charlotte begins to be plagued by horrific visions of the homicide/suicide of so long ago, it appears that
she has gone completely insane. But soon we learn who is behind these delusions...and why. Hush Hush Sweet Charlotte was
intended by director Robert Aldrich as a follow-up to the successful Joan Crawford/Bette Davis horror piece Whatever
Happened to Baby Jane (1962). Ms. Crawford was originally slated to play Miriam, but became seriously ill shortly before
filming started. Davis, who disliked Crawford intensely, suggested that the role of Miriam be filled by her best friend,
De Havilland. On the first day of shooting, Davis and DeHavilland pulled a "Ding Dong the Witch is Dead"
routine by toasting one another with Coca-Cola--a catty observation of the fact that Joan Crawford's husband was an
executive with the Pepsi Cola company!



Nominated for 7 Oscars. Another 5 wins


Robert Aldrich

Bette Davis ... Charlotte
Olivia de Havilland ... Miriam (as Olivia deHavilland)

Joseph Cotten ... Drew
Agnes Moorehead ... Velma

Cecil Kellaway ... Harry


Format : MPEG-4 Visual

Format profile : Streaming Video@L1

Format settings, BVOP : Yes

Format settings, QPel : No

Format settings, GMC : No warppoints

Format settings, Matrix : Custom

Codec ID : XVID

Codec ID/Hint : XviD

Duration : 2h 12mn

Bit rate : 782 Kbps

Width : 640 pixels

Height : 480 pixels

Display aspect ratio : 4/3

Frame rate : 23.976 fps

Resolution : 24 bits

Colorimetry : 4:2:0

Scan type : Progressive

Bits/(Pixel*Frame) : 0.106

Stream size : 743 MiB (92%)

Writing library : XviD 50


Format : MPEG Audio

Format version : Version 1

Format profile : Layer 3

Codec ID : 55

Codec ID/Hint : MP3

Duration : 2h 12mn

Bit rate mode : Variable

Bit rate : 60.0 Kbps

Channel(s) : 1 channel

Sampling rate : 48.0 KHz

Resolution : 16 bits

Stream size : 56.9 MiB (7%)

Alignment : Split accross interleaves

Interleave, duration : 83 ms (2.00 video frames)

Interleave, preload duration : 500 ms

Writing library : LAME3.90

Related Torrents

torrent name size files age seed leech

Sharing Widget

Download torrent
806.27 MB
Hush Hush, Sweet Charlotte (1964) Bette Davis Eng

To share this torrent use the code below and insert it into comments, status messages, forum posts or your signature.

Torrent: Hush Hush, Sweet Charlotte (1964) Bette Davis Eng


tracker name
ĀµTorrent compatible trackers list


Torrent hash: 951ec76935e81098d0c0b14bfc89e81d1ad8f86f

All Comments

please, leave only comments related to that torrent
Sign In

anonymous Show comment
audio: 8video: 9
As others have said, there is a minor audio sync problem. You can correct the problem by using a program like YAAI. Or, if watching on computer, players like VLC can fix synchronization issues on the fly.
Show comment
audio: 9video: 9
ty uppy!
Show comment
audio: 7video: 7
Audio/video unsynchronized, yet watchable.
Show comment
Audio is out of sync but watchable if you can ignore it

User Opinions

Annagp310.87K, lculver19216432, ancianne1565, hentai_priest579, susio563, ato8440, Guinness213407, xxxskfxxx205, malteseme125, kestrelmc76 ... And 16 more
magicman822981, weeezal24, biyolojinet18, inti594
Report a bug