Hunt to Kill 2010 1080p x264 MKV AC3+DTS NLSubs

seeders: 0
leechers: 3
updated:
Added by NLUPPER00242.21K in Movies
Torrent verified. Downloaded 10 times.

Summary:

Steve Austin stars as U.S. Border Patrol agent Jim Rhodes, a tough divorce mourning the loss of his murdered partner while struggling to raise his rebellious daughter in the mountains of Montana. But when a crew of trigger-happy fugitives takes Rhodes and his daughter hostage, a rugged wilderness will explode in all-terrain vengeance. Is there any wounded animal more dangerous than a lawman left for dead?

Written by Pahly221.04K
Available in versions: 1080p720pHDRiPDVDRip
Hunt to Kill 2010 1080p x264 MKV AC3+DTS NLSubs (Size: 6.99 GB)
  Hunt.to.Kill.2010.1080p.x264.MKV.AC3.DTS.NLSubs.mkv 6.99 GB
  Hunt.to.Kill.2010.1080p.x264.MKV.AC3.DTS.NLSubs.nfo 4.6 KB
  DMT NFO, Read before Playing.nfo 1.9 KB
  Torrent downloaded from AhaShare.com.txt 58 bytes
  Torrent downloaded from Demonoid.com.txt 47 bytes

Description


Hunt to Kill 2010 1080p x264 MKV AC3+DTS NLSubs







PLOT



Jim Rhodes is an agent of the rugged border police. When his teenage daughter is kidnapped,

he forced a group of ruthless assassins into the wilderness to lead their lost

part of a deal failed to retrieve. In order to save his daughter,

Jim will now have to use survival techniques to outwit the kidnappers are.



http://www.youtube.com/watch?v=PkmezxntFIM



MM:    http://www.moviemeter.nl/film/69115



IMDB:    http://www.imdb.com/title/tt1563719/



INFO



General



Format                           : Matroska

File size                        : 6.99 GiB

Duration                         : 1h 37mn

Overall bit rate                 : 10.3 Mbps

Encoded date                     : UTC 2010-10-13 10:00:51

Writing application              : mkvmerge v4.3.0 ('Escape from the Island') built on Sep  5 2010 10:30:51

Writing library                  : libebml v1.0.0 + libmatroska v1.0.0



Video

ID                               : 1

Format                           : AVC

Format/Info                      : Advanced Video Codec

Format profile                   : High@L4.1

Format settings, CABAC           : Yes

Format settings, ReFrames        : 4 frames

Format settings, GOP             : M=4, N=16

Muxing mode                      : Container profile=Unknown@4.1

Codec ID                         : V_MPEG4/ISO/AVC

Duration                         : 1h 37mn

Bit rate                         : 8 156 Kbps

Width                            : 1 920 pixels

Height                           : 1 080 pixels

Display aspect ratio             : 16:9

Frame rate                       : 23.976 fps

Color space                      : YUV

Chroma subsampling               : 4:2:0

Bit depth                        : 8 bits

Scan type                        : Progressive

Bits/(Pixel*Frame)               : 0.164

Stream size                      : 5.39 GiB (77%)

Writing library                  : x264 core 105 r1724 b02df7b

Encoding settings                : cabac=1 / ref=4 / deblock=1:0:0 / analyse=0x3:0x133 / me=umh / subme=7 / psy=1 /

psy_rd=1.00:0.00 / mixed_ref=1 / me_range=16 / chroma_me=1 / trellis=1 / 8x8dct=1 / cqm=0 / deadzone=21,11 /

fast_pskip=0 / chroma_qp_offset=-2 / threads=12 / sliced_threads=0 / nr=0 / decimate=1 / interlaced=0 /

constrained_intra=0 / bframes=3 / b_pyramid=2 / b_adapt=1 / b_bias=0 / direct=1 / weightb=1 / open_gop=0 /

weightp=2 / keyint=250 / keyint_min=23 / scenecut=40 / intra_refresh=0 / rc_lookahead=40 / rc=2pass / mbtree=1 /

bitrate=8156 / ratetol=1.0 / qcomp=0.60 / qpmin=10 / qpmax=51 / qpstep=4 / cplxblur=20.0 / qblur=0.5 /

ip_ratio=1.40 / aq=1:1.00

Language                         : English



Audio #1

ID                               : 2

Format                           : DTS

Format/Info                      : Digital Theater Systems

Muxing mode                      : Header stripping

Codec ID                         : A_DTS

Duration                         : 1h 37mn

Bit rate mode                    : Constant

Bit rate                         : 1 510 Kbps

Channel(s)                       : 6 channels

Channel positions                : Front: L C R, Side: L R, LFE

Sampling rate                    : 48.0 KHz

Bit depth                        : 24 bits

Stream size                      : 1.02 GiB (15%)

Language                         : English



Audio #2

ID                               : 3

Format                           : AC-3

Format/Info                      : Audio Coding 3

Mode extension                   : CM (complete main)

Muxing mode                      : Header stripping

Codec ID                         : A_AC3

Duration                         : 1h 37mn

Bit rate mode                    : Constant

Bit rate                         : 640 Kbps

Channel(s)                       : 6 channels

Channel positions                : Front: L C R, Side: L R, LFE

Sampling rate                    : 48.0 KHz

Bit depth                        : 16 bits

Stream size                      : 445 MiB (6%)

Title                            : AC3 640

Language                         : English



Text

ID                               : 4

Format                           : UTF-8

Codec ID                         : S_TEXT/UTF8

Codec ID/Info                    : UTF-8 Plain Text

Title                            : Nederlands

Language                         : Dutch


Related Torrents

torrent name size files age seed leech

Sharing Widget


Download torrent
6.99 GB
seeders:0
leechers:3
Hunt to Kill 2010 1080p x264 MKV AC3+DTS NLSubs



To share this torrent use the code below and insert it into comments, status messages, forum posts or your signature.

Torrent: Hunt to Kill 2010 1080p x264 MKV AC3+DTS NLSubs

Trackers

tracker name
http://10.rarbg.com/announce
http://nemesis.1337x.org/announce
http://bt1.the9.com:6969/announce
udp://inferno.demonoid.com:3405/announce
http://tracker.openbittorrent.com/announce
udp://tracker.openbittorrent.com:80/announce
udp://tracker.publicbt.com:80/announce
http://tracker.ilibr.org/announce
http://fr33dom.h33t.com:3310/announce
http://tracker.publicbt.com/announce
http://inferno.demonoid.com:3405/announce
http://torrent-download.to:5869/announce
http://9.rarbg.com:2710/announce
http://linuxoid.in:4443/announce
µTorrent compatible trackers list

Locations

name
KickassTorrents
1337x
ExtraTorrent
Limetorrents
Torrent hash: 62d7a42364841ce62623ddd2c1a6f69852453ed4

All Comments

audio
10/10
video
10/10
please, leave only comments related to that torrent
Sign In

audio: 10video: 10
the best 10/10
download at high speed http://www.pastebay.com/109053
File cannot be played back

User Opinions

Report a bug