Hollywood Sex Wars 2011 DVDRiP XViD-OCW

seeders: 6
leechers: 2
updated:
Added by legend65.98K in Movies
Torrent verified. Downloaded 149 times.

Summary:

Max (Dominique Purdy), Aaron (Richard Blair) and Glen (Nicholas Cooper) have a track record littered with strike-outs and misfit hook-ups. The boys embark on a mission to up their hot babe batting average. They meet Hollywood Casanova Johnny Eyelash (Mario Diaz) who teaches these boys the game of scoring A-list arm candy. But there is one problem, the girls are organized, cunning and have an agenda of their own. Its not long before the girls, led by Big Wendy (Jenae Alt) and Little Wendy (Eli Jane) pick up on Johnny's tactics and Hollywood becomes one big booby trap.

Written by KAT..FAIRY7243
Available in versions: 720pDVDRip
Hollywood Sex Wars 2011 DVDRiP XViD-OCW (Size: 1.01 GB)
  Hollywood.Sex.Wars.2011.DVDRip.XviD-OCW.avi 1.01 GB
  Torrent downloaded from extratorrent.com.txt 353 bytes

Description


image
Genre : Comedy
Plot : Max (Dominique Purdy), Aaron (Richard Blair) and Glen (Nicholas Cooper) have a track record littered with strike-outs and misfit hook-ups. The boys embark on a mission to up their hot babe batting average. They meet Hollywood Casanova Johnny Eyelash (Mario Diaz) who teaches these boys the game of scoring A-list arm candy. But there is one problem, the girls are organized, cunning and have an agenda of their own. Its not long before the girls, led by Big Wendy (Jenae Alt) and Little Wendy (Eli Jane) pick up on Johnny's tactics and Hollywood becomes one big booby trap.
Complete name : Hollywood.Sex.Wars.2011.DVDRip.XviD-OCW.avi
Format : AVI
Format/Info : Audio Video Interleave
File size : 1.01 GiB
Duration : 1h 38mn
Overall bit rate : 1 464 Kbps
Writing library : MPlayer
Video
ID : 0
Format : MPEG-4 Visual
Format profile : Advanced Simple@L5
Format settings, BVOP : 2
Format settings, QPel : No
Format settings, GMC : No warppoints
Format settings, Matrix : Default (H.263)
Codec ID : XVID
Codec ID/Hint : XviD
Duration : 1h 38mn
Bit rate : 1 196 Kbps
Width : 640 pixels
Height : 352 pixels
Display aspect ratio : 16:9
Frame rate : 23.976 fps
Color space : YUV
Chroma subsampling : 4:2:0
Bit depth : 8 bits
Scan type : Progressive
Compression mode : Lossy
Bits/(Pixel*Frame) : 0.221
Stream size : 846 MiB (82%)
Writing library : XviD 63
Audio
ID : 1
Format : MPEG Audio
Format version : Version 1
Format profile : Layer 3
Mode : Joint stereo
Mode extension : MS Stereo
Codec ID : 55
Codec ID/Hint : MP3
Duration : 1h 38mn
Bit rate mode : Constant
Bit rate : 256 Kbps
Channel(s) : 2 channels
Sampling rate : 44.1 KHz
Compression mode : Lossy
Delay relative to video : 42ms
Stream size : 181 MiB (17%)
Alignment : Aligned on interleaves
Interleave, duration : 26 ms (0.63 video frame)
Interleave, preload duration : 809 ms
Writing library : LAME3.98.4
http://www.imdb.com/title/tt1764366
image
image
image
image

Related Torrents

torrent name size files age seed leech

Sharing Widget


Download torrent
1.01 GB
seeders:6
leechers:2
Hollywood Sex Wars 2011 DVDRiP XViD-OCW



To share this torrent use the code below and insert it into comments, status messages, forum posts or your signature.

Torrent: Hollywood Sex Wars 2011 DVDRiP XViD-OCW

Trackers

tracker name
udp://tracker.publicbt.com:80/announce
udp://tracker.openbittorrent.com:80/announce
udp://tracker.istole.it:80/announce
udp://tracker.1337x.org:80/announce
udp://coppersurfer.tk:6969/announce
udp://glotorrents.pw:6969/announce
udp://tracker4.piratux.com:6969/announce
udp://open.demonii.com:1337/announce
udp://fr33domtracker.h33t.com:3310/announce
udp://tracker.ccc.de:80/announce
µTorrent compatible trackers list

Locations

name
KickassTorrents
ThePirateBay
ExtraTorrent
Limetorrents
Torrent hash: CFD14CE132F58DC6444BC1FC8C1DACDE0893C3E7

Top Comments

2
KuruKumBa553
audio: 9video: 9
Quality Good
2
bigguy22224
thank you

All Comments

audio
8/10
video
8/10
please, leave only comments related to that torrent
Sign In

audio: 10video: 10
brilent
(.Y.) [ ] ( y )
audio: 10video: 10
awesome movie, great quality and thanks for sharing
audio: 8video: 8
Good :)
thanks uploader, good film.
sex pics http://imagetwist.com/xx5fzsb62e4o/1-18aa_160x600_gif_1.gif.html
Show More All

User Opinions

q8djent6178, Fireman58444525, Moglee1500, toxictoadz1243, jkarp1729, martinowp565, Rav817448, hobyt436, joe123321235, Littlelostsoul420229 ... And 649 more
SGTskipryder13.14K, Dr_M1895, dinodinodinodino1103, dilipkk983, epik™586, schizofreud556, blindnowhite445, Drefcom211, hellboycool118, Atef Malak8 ... And 118 more
Report a bug