High School Musical 2 2007 DVDrip Dutch Klam

seeders: 3
leechers: 1
updated:
Added in Movies
Torrent verified. Downloaded 120 times.

Summary:

During the summer vacations a talent show is organized in a local country club and Troy, Gabriella, Sharpay, Ryan, Chad and Taylor take part in it.

Written by Anette14150.96K
Available in versions: HDRiPDVDRip
High School Musical 2 2007 DVDrip Dutch Klam (Size: 1.66 GB)
  High School Musical 2.avi 1.66 GB
  www.Film-Test.nl.jpg 35.44 KB
  New Dutch Site.txt 117 bytes
  Torrent downloaded from Demonoid.com.txt 47 bytes
  Cover

Description

With: Zac Efron, Vanessa Hudgens and Ashley Tisdale

Iedereen van de East High Wild Cats heeft een baantje bij de Evan's Country Club, dat eigendom is van Ryan en Sharpay's ouders. Elk jaar organiseert de countryclub een talentenjacht waar ze het het op moeten nemen tegen een andere club. Deze race wordt echter lastiger dan de voorgaande jaren, omdat Sharpay Ryan laat vallen en een duet met Troy wil doen tijdens de talentenjacht.

During the summer vacations a talent show is organized in a local country club and Troy, Gabriella, Sharpay, Ryan, Chad and Taylor take part in it.

------------------ Dutch Friends ------------------
You can find my Friends at: http://www.Film-Test.nl
------ They got my dutch subs ----- and more ------

General:

Complete name : High School Musical 2\High School Musical 2.avi
Format : AVI
Format/Info : Audio Video Interleave
File size : 1.66 GiB
Duration : 1h 46mn
Overall bit rate : 2 237 Kbps

Video:

Format : MPEG-4 Visual
Format profile : Simple@L3
Format settings, BVOP : No
Format settings, QPel : No
Format settings, GMC : No warppoints
Format settings, Matrix : Default (H.263)
Codec ID : XVID
Codec ID/Hint : XviD
Duration : 1h 46mn
Bit rate : 1 842 Kbps
Width : 704 pixels
Height : 396 pixels
Display aspect ratio : 16:9
Frame rate : 25.000 fps
Color space : YUV
Chroma subsampling : 4:2:0
Bit depth : 8 bits
Scan type : Progressive
Compression mode : Lossy
Bits/(Pixel*Frame) : 0.264
Stream size : 1.37 GiB (82%)
Writing library : XviD 1.1.2 (UTC 2006-11-01)

Audio:

Format : AC-3
Format/Info : Audio Coding 3
Mode extension : CM (complete main)
Codec ID : 2000
Duration : 1h 46mn
Bit rate mode : Constant
Bit rate : 384 Kbps
Channel(s) : 6 channels
Channel positions : Front: L C R, Side: L R, LFE
Sampling rate : 48.0 KHz
Bit depth : 16 bits
Compression mode : Lossy
Stream size : 292 MiB (17%)
Alignment : Aligned on interleaves
Interleave, duration : 32 ms (0.80 video frame)

Related Torrents

torrent name size files age seed leech

Sharing Widget


Download torrent
1.66 GB
seeders:3
leechers:1
High School Musical 2 2007 DVDrip Dutch Klam



To share this torrent use the code below and insert it into comments, status messages, forum posts or your signature.

Torrent: High School Musical 2 2007 DVDrip Dutch Klam

Trackers

tracker name
udp://tracker.openbittorrent.com:80/announce
http://pow7.com/announce
http://inferno.demonoid.me:3406/announce
udp://tracker.publicbt.com:80/announce
http://tracker.torrentbay.to:6969/announce
http://10.rarbg.com/announce
http://tracker.openbittorrent.com/announce
http://tracker.ilibr.org/announce
http://tracker.publicbt.com/announce
http://tracker.jamendo.com/announce
http://tracker.jamendo.com/announce.php
http://9.rarbg.com:2710/announce
ĀµTorrent compatible trackers list

Locations

name
ThePirateBay
Torrent hash: 206a0e756229b6d8816dbb8d47b3e010c14f18c0

All Comments

audio
8/10
video
8/10
please, leave only comments related to that torrent
Sign In

Is this movie in dutch??
is this movie copy great?
yes!!!!!bitch don't doubt
look bitch shut up
hi twin gi,knkndfljvnsdmfn,jk


User Opinions

shinah4154, zeMedia3467, mj.baay949, Police6820, pllspoilers458, senilelarry183, anna0257, bouja50, xromywillems11, rachnsteve080 ... And 3 more
A_Korunovski224, Stanzi63
Report a bug Open chat