Hi-5 Animal Adventures 2005 DVDRip XViD-SPRiNTER

seeders: 0
leechers: 0
Added on Aug 11, 2011 in Movies
Torrent verified. Downloaded 0 times.

Hi-5 Animal Adventures 2005 DVDRip XViD-SPRiNTER (Size: 713.41 MB)
  READ this before playing the Movie.txt 509 bytes
  sprinter-xvid-hi5aa.avi 702.07 MB
  sprinter-xvid-hi5aa.nfo 6.5 KB
  www.Torrenting.com.txt 509 bytes
  Sample

Description

.

http://www.torrenting.com/ : Greatest Movie Tracker on The Net!!!

http://www.Torrenting.com : Once & For all ;)


www . Torrenting . Com

(((((((((((((= Enjoy No RAR releases =))))))))))))))))))))


...................................NFO:....................................

.































ARTiCHOKE
























SPRiNTER proudly presents...



Hi-5.Animal.Adventures.2005.DVDRip.XViD-SPRiNTER
http://www.fishpond.com.au/M...-Robinson/9398710526493?cf=3


Date: 2011.08





Release notes





Enjoy!




Greetings




NTX FiCO HNR CiNEFiLE AEN HUMANiSM TASTE 0MNiDVD




Details



Format : AVI
Format/Info : Audio Video Interleave
File size : 702 MiB
Duration : 55mn 51s
Overall bit rate : 1 757 Kbps
Writing application : Nandub v1.0rc2
Writing library : Nandub build 1853/release

Video
ID : 0
Format : MPEG-4 Visual
Format profile : Advanced Simple@L5
Format settings, BVOP : No
Format settings, QPel : No
Format settings, GMC : No warppoints
Format settings, Matrix : Default (H.263)
Codec ID : XVID
Codec ID/Hint : XviD
Duration : 55mn 51s
Bit rate : 1 606 Kbps
Width : 512 pixels
Height : 384 pixels
Display aspect ratio : 4:3
Frame rate : 25.000 fps
Color space : YUV
Chroma subsampling : 4:2:0
Bit depth : 8 bits
Scan type : Progressive
Compression mode : Lossy
Bits/(Pixel*Frame) : 0.327
Stream size : 642 MiB (91%)
Writing library : XviD 61

Audio
ID : 1
Format : MPEG Audio
Format version : Version 1
Format profile : Layer 3
Codec ID : 55
Codec ID/Hint : MP3
Duration : 55mn 50s
Bit rate mode : Variable
Bit rate : 139 Kbps
Channel(s) : 2 channels
Sampling rate : 48.0 KHz
Compression mode : Lossy
Stream size : 55.4 MiB (8%)
Alignment : Aligned on interleaves
Interleave, duration : 24 ms (0.60 video frame)
Interleave, preload duration : 210 ms
Writing library : LAME3.89 (alpha)

Sharing Widget


Download torrent
713.41 MB
seeders:0
leechers:0
Hi-5 Animal Adventures 2005 DVDRip XViD-SPRiNTER

Trackers

tracker name Status checked seeders leechers downloads
udp://tracker.publicbt.com:80/announce
outdated 19 Jul 2013 - - -
http://tracker.openbittorrent.com/announce
outdated 19 Jul 2013 - - -
udp://tracker.openbittorrent.com:80/announce
outdated 19 Jul 2013 - - -
http://tracker.publicbt.com/announce
deleted 19 Jul 2013 - - -
µTorrent compatible trackers list

Locations

name
ThePirateBay
Limetorrents
Torrent hash: acfe24b54c3be306123b0bcc1ce4c7fce5666947

All Comments

audio
9/10
video
9/10
please, leave only comments related to that torrent
or sign-in
0
rebbiebear199 • 24 June 2014, 04:41
torrent downloaded
Show comment
audio: 10video: 10
0
anonymous • 28 April 2013, 06:30 Show comment
is this the australian one??
0
waffle621860 • 29 August 2012, 15:52
torrent downloaded
Show comment
audio: 8video: 9
good copy. thanks
0
imwally12557 • 16 July 2012, 10:18
torrent downloaded
Show comment
audio: 9video: 9
thank you quality good
0
od3n196 • 04 June 2012, 11:30
torrent downloaded
Show comment
audio: 9video: 9
This is the Australia version :)

User Opinions

Report a bug