Hesher 2010 BRRIP 720P H264-ZEKTORM

seeders: 0
leechers: 2
updated:
Added in Movies > Highres Movies
Torrent verified. Downloaded 1,443 times.

Summary:

A young boy has lost his mother and is losing touch with his father and the world around him. Then he meets Hesher who manages to make his life even more chaotic.

Written by phoenix66118.91K
Available in versions: 1080p720pHDRiPDVDRip
Hesher 2010 BRRIP 720P H264-ZEKTORM (Size: 2.25 GB)
  Hesher.2010.BRRIP.720P.H264-ZEKTORM.mp4 2.25 GB
  read.hlp 13.51 KB
  Torrent downloaded from Demonoid.me.txt 46 bytes

Description

Title : Hesher
Year : 2010
Genre : Drama
iMDB URL : http://www.imdb.com/title/tt1403177/

Complete name : Hesher.2010.BRRIP.720P.H264-ZEKTORM.mp4
Format : MPEG-4
Format profile : Base Media
Codec ID : isom
File size : 2.25 GiB
Duration : 1h 45mn
Overall bit rate : 3047 Kbps

Video
ID : 1
Format : AVC
Format/Info : Advanced Video Codec
Format profile : High@L4.0
Format settings, CABAC : Yes
Format settings, ReFrames : 9 frames
Codec ID : avc1
Codec ID/Info : Advanced Video Coding
Duration : 1h 45mn
Bit rate mode : Variable
Bit rate : 2647 Kbps
Width : 1280 pixels
Height : 720 pixels
Display aspect ratio : 16/9
Frame rate mode : Constant
Frame rate : 24.000 fps
Resolution : 24 bits
Colorimetry : 4:2:0
Scan type : Progressive
Bits/(Pixel*Frame) : 0.120
Stream size : 1.95 GiB (87%)
Title : Video
Writing library : x264

Audio
ID : 2
Format : AAC
Format/Info : Advanced Audio Codec
Format version : Version 4
Format profile : LC
Format settings, SBR : No
Codec ID : 40
Duration : 1h 45mn
Bit rate mode : Variable
Bit rate : 396 Kbps
Maximum bit rate : 585 Kbps
Channel(s) : 6 channels
Channel positions : Front: L C R, Rear: L R, LFE
Sampling rate : 48.0 KHz
Resolution : 16 bits
Stream size : 299 MiB (13%)
Language : English


Screenshots:

http://img4.imageshack.us/img4/1572/snaph1.png

http://img820.imageshack.us/img820/8751/snaph2.png

http://img842.imageshack.us/img842/6018/snaph3.png

http://img153.imageshack.us/img153/2186/snaph4.png

Sharing Widget


Download torrent
2.25 GB
seeders:0
leechers:2
Hesher 2010 BRRIP 720P H264-ZEKTORM



To share this torrent use the code below and insert it into comments, status messages, forum posts or your signature.

Torrent: Hesher 2010 BRRIP 720P H264-ZEKTORM

Trackers

tracker name
udp://tracker.openbittorrent.com:80/announce
http://secure.pow7.com/announce
http://pow7.com/announce
http://inferno.demonoid.me:3399/announce
udp://tracker.publicbt.com:80/announce
http://tracker.openbittorrent.com/announce
http://nemesis.1337x.org/announce
http://torrent-downloads.to:5869/announce
http://exodus.1337x.org/announce
http://tracker.csze.com/announce
http://tracker.token.ro/announce
http://tracker.torrentbay.to:6969/announce
http://tracker.publicbt.com/announce
µTorrent compatible trackers list

Locations

name
ThePirateBay
ExtraTorrent
Torrent hash: 3eda63682891aa73f4978ebb26f79323f1a66fc8

All Comments

audio
9/10
video
8/10
please, leave only comments related to that torrent
Sign In

audio: 8video: 6
Overly sharpened and low quality compression.
very nice compression, interesting movie
have tried quicktime, VLC, iTunes, and MPEG Streamclip. Video is great, no audio... What gives!?
audio: 9video: 9
Splendiferous - tack! wink
audio: 9video: 9
Good torrent !biggrin
audio: 7video: 7
quality is good. Too bad the movie couldn't be the same
Show More All

User Opinions

WhiteFrog4269, kikinfl20043073, Dr.evil chemz2247, ToxicSoldier1764, kid_ankit879, JayAce866, BBRoamer764, etro650, Anil1990491, [I]baneZ91 ... And 37 more
Report a bug